<?xml version="1.0" standalone="no"?>
<!DOCTYPE svg PUBLIC "-//W3C//DTD SVG 1.1//EN" "http://www.w3.org/Graphics/SVG/1.1/DTD/svg11.dtd" >
<svg xmlns="http://www.w3.org/2000/svg">
<metadata>Generated by IcoMoon</metadata>
<defs>
<font id="icomoon" horiz-adv-x="1024">
<font-face units-per-em="1024" ascent="960" descent="-64" />
<missing-glyph horiz-adv-x="1024" />
<glyph unicode="&#x20;" d="" horiz-adv-x="512" />
<glyph unicode="&#xe600;" d="M1080.888-64h-1024c-31.364 0-56.89 25.524-56.89 56.89v720.592c0 31.366 25.524 56.89 56.89 56.89h1024c31.366 0 56.888-25.524 56.888-56.89v-720.592c0-31.366-25.524-56.89-56.888-56.89zM56.89 732.444c-10.468 0-18.964-8.496-18.964-18.962v-720.592c0-10.468 8.494-18.962 18.964-18.962h1024c10.468 0 18.962 8.496 18.962 18.962v720.592c0 10.468-8.494 18.962-18.962 18.962h-1024zM758.52 751.408h-37.926v170.668h-303.406v-170.668h-37.926v170.668c0 20.916 17.010 37.926 37.926 37.926h303.406c20.916 0 37.926-17.010 37.926-37.926v-170.668zM398.222 884.148h341.334v-37.926h-341.334v37.926zM132.742 542.816h853.332v-37.926h-853.332v37.926zM132.742 353.184h853.332v-37.926h-853.332v37.926zM132.742 163.556h853.332v-37.926h-853.332v37.926z" horiz-adv-x="1138" />
<glyph unicode="&#xe601;" d="M972.8 345.6c-9.438 0-17.068 7.63-17.068 17.068 0 62.976-55.158 85.332-102.4 85.332-58.606 0-102.4-45.056-102.4-85.332 0-9.438-7.63-17.068-17.068-17.068s-17.068 7.63-17.068 17.068c0 40.278-43.794 85.332-102.4 85.332s-102.4-45.056-102.4-85.332c0-9.438-7.63-17.068-17.068-17.068s-17.068 7.63-17.068 17.068c0 40.278-43.794 85.332-102.4 85.332s-102.4-45.056-102.4-85.332c0-9.438-7.63-17.068-17.068-17.068s-17.068 7.63-17.068 17.068c0 40.278-43.794 85.332-102.4 85.332-47.24 0-102.4-22.356-102.4-85.332 0-9.438-7.628-17.068-17.068-17.068s-17.068 7.63-17.068 17.068c0 272.896 222.038 494.932 494.932 494.932s494.934-222.038 494.934-494.932c0-9.438-7.63-17.068-17.068-17.068zM614.4 482.132c49.972 0 95.71-26.35 119.466-63.488 23.756 37.138 69.496 63.488 119.466 63.488 37.786 0 69.836-10.29 93.372-28.4-42.412 210.62-228.846 369.732-451.772 369.732s-409.36-159.112-451.772-369.732c23.534 18.108 55.586 28.4 93.372 28.4 49.972 0 95.71-26.35 119.466-63.488 23.758 37.138 69.496 63.488 119.466 63.488s95.71-26.35 119.466-63.488c23.758 37.138 69.494 63.488 119.468 63.488zM563.2-64c-47.052 0-85.332 38.28-85.332 85.332v341.332c0 9.438 7.63 17.068 17.068 17.068s17.068-7.63 17.068-17.068v-341.334c0-28.228 22.972-51.2 51.2-51.2s51.2 22.972 51.2 51.2c0 9.438 7.63 17.068 17.068 17.068s17.068-7.63 17.068-17.068c0-47.052-38.28-85.334-85.332-85.334zM494.932 823.466c-9.438 0-17.068 7.63-17.068 17.068v102.4c0 9.438 7.63 17.068 17.068 17.068s17.068-7.628 17.068-17.068v-102.4c0-9.438-7.63-17.068-17.068-17.068z" horiz-adv-x="990" />
<glyph unicode="&#xe602;" d="M815.408-64h-720.592c-10.486 0-18.962 8.476-18.962 18.962v986.074c0 10.486 8.476 18.962 18.962 18.962h720.592c10.486 0 18.962-8.476 18.962-18.962v-986.074c0-10.486-8.476-18.962-18.962-18.962zM113.778-26.074h682.668v948.148h-682.668v-948.148zM625.778 504.89h-303.406c-10.488 0-18.964 8.476-18.964 18.964v227.556c0 10.486 8.476 18.964 18.964 18.964h303.406c10.486 0 18.962-8.476 18.962-18.964v-227.556c0-10.488-8.476-18.964-18.962-18.964zM341.334 542.816h265.482v189.63h-265.48v-189.63zM170.668 49.778h-151.704c-10.488 0-18.964 8.476-18.964 18.962s8.476 18.962 18.964 18.962h151.704c10.486 0 18.962-8.476 18.962-18.962s-8.476-18.962-18.962-18.962zM170.668 201.48h-151.704c-10.488 0-18.964 8.476-18.964 18.962s8.476 18.962 18.964 18.962h151.704c10.486 0 18.962-8.476 18.962-18.962s-8.476-18.962-18.962-18.962zM170.668 353.184h-151.704c-10.488 0-18.964 8.476-18.964 18.962s8.476 18.962 18.964 18.962h151.704c10.486 0 18.962-8.476 18.962-18.962s-8.476-18.962-18.962-18.962zM170.668 504.89h-151.704c-10.488 0-18.964 8.476-18.964 18.964s8.476 18.962 18.964 18.962h151.704c10.486 0 18.962-8.476 18.962-18.962s-8.476-18.964-18.962-18.964zM170.668 656.594h-151.704c-10.488 0-18.964 8.476-18.964 18.962s8.476 18.962 18.964 18.962h151.704c10.486 0 18.962-8.476 18.962-18.962s-8.476-18.962-18.962-18.962zM170.668 808.296h-151.704c-10.488 0-18.964 8.476-18.964 18.962s8.476 18.962 18.964 18.962h151.704c10.486 0 18.962-8.476 18.962-18.962s-8.476-18.962-18.962-18.962zM967.11 656.594h-151.704c-10.486 0-18.962 8.476-18.962 18.962v189.63c0 10.486 8.476 18.962 18.962 18.962h151.704c10.486 0 18.962-8.476 18.962-18.962v-189.63c0-10.488-8.476-18.962-18.962-18.962zM834.37 694.52h113.778v151.704h-113.778v-151.704zM967.11 466.964h-151.704c-10.486 0-18.962 8.476-18.962 18.964v189.63c0 10.488 8.476 18.962 18.962 18.962h151.704c10.486 0 18.962-8.476 18.962-18.962v-189.63c0-10.488-8.476-18.964-18.962-18.964zM834.37 504.89h113.778v151.704h-113.778v-151.704zM967.11 277.332h-151.704c-10.486 0-18.962 8.476-18.962 18.962v189.63c0 10.488 8.476 18.964 18.962 18.964h151.704c10.486 0 18.962-8.476 18.962-18.964v-189.63c0-10.486-8.476-18.962-18.962-18.962zM834.37 315.26h113.778v151.704h-113.778v-151.704zM967.11 87.704h-151.704c-10.486 0-18.962 8.476-18.962 18.962v189.63c0 10.486 8.476 18.962 18.962 18.962h151.704c10.486 0 18.962-8.476 18.962-18.962v-189.63c0-10.486-8.476-18.962-18.962-18.962zM834.37 125.63h113.778v151.704h-113.778v-151.704z" horiz-adv-x="986" />
<glyph unicode="&#xe603;" d="M183.188 281.022c-0.412 0-0.8 0-1.186 0.024-7.164 0.388-13.758 4.13-17.752 10.062l-160.372 238.86c-7.028 10.472-4.244 24.642 6.206 31.668 10.45 7.072 24.664 4.244 31.668-6.206l143.42-213.602 164.89 197.448c8.076 9.674 22.452 10.998 32.126 2.898 9.674-8.076 10.952-22.452 2.898-32.126l-184.376-220.834c-4.358-5.202-10.77-8.192-17.522-8.192zM1321.61 272.376c-7.346 0-14.578 3.536-18.96 10.086l-143.328 213.602-164.96-197.472c-8.076-9.698-22.474-10.974-32.126-2.898-9.698 8.076-10.952 22.452-2.898 32.126l184.466 220.836c4.586 5.52 11.522 8.76 18.71 8.168 7.164-0.388 13.758-4.13 17.728-10.062l160.282-238.86c7.028-10.472 4.244-24.64-6.206-31.668-3.946-2.6-8.352-3.856-12.708-3.856zM670.924-64c-132.698 0-261.060 51.77-358.552 147.846-8.988 8.852-9.058 23.294-0.228 32.262s23.296 9.058 32.262 0.228c115.22-113.6 277.828-159.232 434.962-121.996 238.654 56.4 403.020 300.736 358.94 533.596-2.35 12.366 5.796 24.298 18.184 26.65 12.366 2.26 24.298-5.794 26.65-18.184 48.508-256.062-131.578-524.628-393.254-586.46-39.54-9.356-79.446-13.942-118.962-13.942zM182.504 284.056c-10.038 0-19.278 6.708-22.016 16.884-36.026 133.884-16.016 274.384 56.31 395.628 74.996 125.67 198.042 216.66 337.56 249.652 183.896 43.396 375.96-17.454 501.356-159.050 8.352-9.446 7.462-23.866-1.962-32.216-9.424-8.304-23.82-7.484-32.216 1.962-114.24 129.024-289.19 184.466-456.66 144.904-127.608-30.162-240.206-113.51-308.882-228.616-65.962-110.542-84.212-238.54-51.426-360.4 3.284-12.16-3.948-24.688-16.108-27.972-1.986-0.524-3.992-0.776-5.956-0.776z" horiz-adv-x="1344" />
<glyph unicode="&#xe604;" d="M193.336-63.846c-0.016 0-0.016 0 0 0-25.444 0-50.32 5.066-73.944 15.058-5.478 2.318-9.374 7.314-10.284 13.202s1.306 11.812 5.838 15.674l91.216 77.722v77.944h-84.538l-77.722-88.264c-3.896-4.428-9.838-6.576-15.64-5.596-5.82 0.962-10.766 4.824-13.064 10.268-30.388 71.798-14.44 153.778 40.622 208.838 35.9 35.918 83.644 55.696 134.464 55.696 21.804 0 43.11-3.64 63.454-10.832l400.336 400.37c-24.432 69.068-7.4 145.64 44.88 197.918 35.918 35.9 83.678 55.678 134.48 55.678 25.754 0 50.784-5.082 74.408-15.074 5.442-2.302 9.304-7.228 10.268-13.066 0.944-5.836-1.168-11.742-5.614-15.64l-88.28-77.722v-84.52h77.928l77.688 91.234c3.846 4.532 9.736 6.782 15.674 5.836 5.89-0.91 10.884-4.79 13.202-10.284 30.268-71.524 14.712-150.312-40.568-205.644-35.918-35.918-83.662-55.678-134.448-55.678-21.822 0-43.11 3.64-63.49 10.834l-400.388-400.37c24.826-69.704 8.43-146.294-43.264-197.918-35.848-35.9-83.182-55.66-133.212-55.66zM160.698-26.040c10.696-2.318 21.598-3.468 32.62-3.468 40.86 0 79.576 16.19 109.002 45.616 44.45 44.432 56.88 111.612 31.658 171.188-2.73 6.438-1.27 13.89 3.674 18.834l416.216 416.182c4.962 4.946 12.396 6.404 18.834 3.674 19.366-8.206 39.918-12.36 61.034-12.36 41.6 0 80.726 16.19 110.154 45.616 38.096 38.114 53.136 89.81 42.15 140.062l-62.854-73.808c-3.262-3.83-8.034-6.044-13.066-6.044h-103.028c-9.476 0-17.168 7.674-17.168 17.168v109.484c0 4.928 2.13 9.632 5.82 12.894l71.422 62.87c-11.004 2.422-22.25 3.64-33.686 3.64-41.65 0-80.794-16.206-110.206-45.616-45.12-45.136-58.202-112.318-33.308-171.188 2.73-6.438 1.27-13.89-3.674-18.834l-416.182-416.2c-4.962-4.962-12.414-6.404-18.834-3.674-19.348 8.206-39.884 12.36-61 12.36-41.634 0-80.76-16.206-110.17-45.634-38.268-38.27-53.48-92.4-42.030-143.872l62.906 71.422c3.262 3.708 7.948 5.82 12.876 5.82h109.468c9.478 0 17.17-7.674 17.17-17.168v-103.046c0-5.030-2.198-9.802-6.044-13.066l-73.756-62.854zM408.026 435.45l-154.258 153.882c-69.412-24.654-145.984-7.932-197.954 44.054-54.75 54.768-70.7 136.13-40.622 207.224 2.318 5.476 7.314 9.374 13.202 10.284 5.888 0.928 11.83-1.306 15.676-5.838l77.722-91.234h84.366v84.35l-91.216 77.722c-4.532 3.862-6.746 9.786-5.838 15.674s4.79 10.884 10.284 13.202c71.506 30.302 150.294 14.714 205.61-40.604 52.312-52.278 69.326-128.834 44.86-197.92l154.242-154.224-24.276-24.276-162.156 162.14c-4.944 4.944-6.404 12.396-3.674 18.834 24.928 58.888 11.862 126.068-33.274 171.188-38.114 38.114-89.826 53.136-140.044 42.166l73.808-62.888c3.83-3.246 6.044-8.036 6.044-13.066v-109.448c0-9.494-7.692-17.168-17.17-17.168h-109.502c-5.030 0-9.802 2.214-13.064 6.044l-62.82 73.722c-10.868-50.612 4.344-103.818 42.132-141.606 44.74-44.794 111.922-57.566 171.188-32.484 6.42 2.73 13.872 1.254 18.818-3.656l162.174-161.778-24.26-24.294zM833.24-64c-49.394 0-97.758 19.298-134.24 55.798-52.294 52.294-69.326 128.85-44.86 197.902l-154.312 154.362 24.276 24.276 162.226-162.278c4.946-4.946 6.404-12.396 3.674-18.834-24.912-58.854-11.846-126.034 33.274-171.17 38.25-38.27 92.418-53.462 143.908-41.994l-71.456 62.87c-3.708 3.262-5.82 7.966-5.82 12.894v103.080c0 9.494 7.692 17.168 17.168 17.168h103.028c4.928 0 9.632-2.112 12.876-5.82l62.924-71.422c11.452 51.472-3.76 105.604-42.028 143.872-45.136 45.136-112.334 58.218-171.17 33.274-6.438-2.746-13.89-1.27-18.834 3.674l-162.158 162.192 24.276 24.276 154.242-154.276c69.018 24.466 145.606 7.468 197.918-44.86 55.058-55.058 71.010-137.022 40.62-208.838-2.302-5.424-7.228-9.304-13.066-10.268-5.802-0.98-11.726 1.168-15.64 5.596l-77.74 88.264h-78.1v-78.15l88.314-77.688c4.428-3.914 6.542-9.802 5.614-15.64-0.944-5.836-4.824-10.764-10.268-13.066-24.208-10.216-49.566-15.194-74.65-15.194z" />
<glyph unicode="&#xe605;" d="M1006.932-64h-989.866c-9.42 0-17.068 7.63-17.068 17.068v989.866c0 9.438 7.646 17.068 17.068 17.068h989.866c9.422 0 17.068-7.63 17.068-17.068v-989.866c0-9.438-7.646-17.068-17.068-17.068zM34.134-29.866h955.732v955.732h-955.732v-955.732zM529.068 323.328c-9.422 0-17.068 7.63-17.068 17.068v295.338c0 9.438 7.646 17.068 17.068 17.068s17.068-7.628 17.068-17.068v-295.338c0-9.422-7.646-17.068-17.068-17.068zM733.866 323.328c-9.422 0-17.068 7.63-17.068 17.068v90.538c0 9.438 7.646 17.068 17.068 17.068s17.068-7.63 17.068-17.068v-90.538c0-9.422-7.646-17.068-17.068-17.068zM290.132 550.4c-9.42 0-17.068 7.63-17.068 17.068v246.356c0 9.438 7.646 17.068 17.068 17.068s17.068-7.63 17.068-17.068v-246.356c0-9.438-7.646-17.068-17.068-17.068zM290.132 323.328c-9.42 0-17.068 7.63-17.068 17.068v158.806c0 9.438 7.646 17.068 17.068 17.068s17.068-7.63 17.068-17.068v-158.806c0-9.422-7.646-17.068-17.068-17.068zM733.866 482.132c-9.422 0-17.068 7.63-17.068 17.068v314.624c0 9.438 7.646 17.068 17.068 17.068s17.068-7.63 17.068-17.068v-314.624c0-9.438-7.646-17.068-17.068-17.068zM529.068 686.932c-9.422 0-17.068 7.63-17.068 17.068v109.824c0 9.438 7.646 17.068 17.068 17.068s17.068-7.63 17.068-17.068v-109.824c0-9.438-7.646-17.068-17.068-17.068zM802.134 413.866h-136.534c-9.422 0-17.068 7.63-17.068 17.068v68.266c0 9.438 7.646 17.068 17.068 17.068h136.534c9.422 0 17.068-7.63 17.068-17.068v-68.266c0-9.438-7.646-17.068-17.068-17.068zM682.668 448h102.4v34.132h-102.4v-34.132zM597.332 618.666h-136.534c-9.42 0-17.068 7.63-17.068 17.068v68.268c0 9.438 7.646 17.068 17.068 17.068h136.534c9.422 0 17.068-7.63 17.068-17.068v-68.268c0-9.438-7.646-17.068-17.068-17.068zM477.868 652.8h102.4v34.134h-102.4v-34.134zM358.4 482.132h-136.532c-9.42 0-17.068 7.63-17.068 17.068v68.266c0 9.438 7.646 17.068 17.068 17.068h136.532c9.42 0 17.068-7.63 17.068-17.068v-68.266c0-9.438-7.646-17.068-17.068-17.068zM238.932 516.268h102.4v34.132h-102.4v-34.132zM733.866 72.534c-47.052 0-85.332 38.28-85.332 85.332s38.28 85.332 85.332 85.332 85.332-38.28 85.332-85.332-38.28-85.332-85.332-85.332zM733.866 209.068c-28.228 0-51.2-22.972-51.2-51.2s22.972-51.2 51.2-51.2 51.2 22.972 51.2 51.2-22.972 51.2-51.2 51.2zM529.068 72.534c-47.052 0-85.332 38.28-85.332 85.332s38.282 85.332 85.332 85.332 85.332-38.28 85.332-85.332-38.28-85.332-85.332-85.332zM529.068 209.068c-28.228 0-51.2-22.972-51.2-51.2s22.972-51.2 51.2-51.2 51.2 22.972 51.2 51.2-22.972 51.2-51.2 51.2zM290.132 72.534c-47.052 0-85.332 38.28-85.332 85.332s38.282 85.332 85.332 85.332 85.334-38.28 85.334-85.332-38.282-85.332-85.332-85.332zM290.132 209.068c-28.228 0-51.2-22.972-51.2-51.2s22.972-51.2 51.2-51.2 51.2 22.972 51.2 51.2-22.972 51.2-51.2 51.2z" />
<glyph unicode="&#xe606;" d="M966.038-64h-966.038v96.604c0 70.442 44.128 133.544 109.8 157l237.974 88.278v108.758h38.642v-135.632l-263.4-97.706c-50.562-18.066-84.374-66.52-84.374-120.698v-57.962h888.754v57.962c0 52.958-35.318 102.574-85.88 120.62l-261.894 97.822v145.060h38.642v-118.224l236.524-88.354c66.424-23.726 111.25-86.826 111.25-156.924v-96.604zM476.084 336.692c-144.984 0-262.916 139.806-262.916 311.664s117.934 311.644 262.916 311.644 262.936-139.786 262.936-311.644-117.952-311.664-262.936-311.664zM476.084 921.358c-123.672 0-224.276-122.474-224.276-273.002 0-150.548 100.622-273.022 224.276-273.022 123.672 0 224.296 122.474 224.296 273.022 0 150.528-100.622 273.002-224.294 273.002zM655.012 649.264c-58.368 0-103.966 26.548-142.586 82.596-39.686-45.056-114.438-78.48-182.504-78.48-38.004 0-70.83 7.902-103.27 24.904l17.93 34.216c26.702-13.988 53.828-20.5 85.34-20.5 65.362 0 143.090 39.068 166.312 83.64l16.366 31.358 17.544-30.72c42.892-75.062 88.218-98.73 161.522-84.644 6.356 1.216 11.804 1.294 16.634 1.352 2.648 0.038 5.312 0.038 8.174 0.386l4.578-38.372c-4.288-0.502-8.308-0.58-12.288-0.638-3.206-0.038-6.356 0.020-9.796-0.656-15.4-2.938-30.044-4.444-43.956-4.444z" horiz-adv-x="966" />
<glyph unicode="&#xe607;" d="M682.668-64h-580.268c-56.474 0-102.4 45.926-102.4 102.4v819.2c0 56.474 45.926 102.4 102.4 102.4h580.268c56.474 0 102.4-45.926 102.4-102.4v-819.2c0-56.474-45.926-102.4-102.4-102.4zM102.4 925.866c-37.65 0-68.266-30.618-68.266-68.266v-819.2c0-37.65 30.618-68.266 68.266-68.266h580.268c37.65 0 68.266 30.618 68.266 68.268v819.2c0 37.65-30.618 68.268-68.268 68.268h-580.268zM682.668 140.8h-580.268v682.668h580.268v-682.668zM136.532 174.932h512v614.4h-512v-614.4zM392.534 891.732c-9.42 0-17.068-7.646-17.068-17.068s7.646-17.068 17.068-17.068c9.42 0 17.068 7.646 17.068 17.068s-7.646 17.068-17.068 17.068v0zM392.534 4.268c-28.228 0-51.2 22.972-51.2 51.2s22.972 51.2 51.2 51.2 51.2-22.972 51.2-51.2-22.972-51.2-51.2-51.2zM392.534 72.534c-9.42 0-17.068-7.646-17.068-17.068s7.646-17.068 17.068-17.068 17.068 7.646 17.068 17.068-7.646 17.068-17.068 17.068z" horiz-adv-x="786" />
<glyph unicode="&#xe608;" d="M950.856-64h-292.572v329.144h-219.428v-329.144h-292.572v457.144c0 10.112 8.192 18.286 18.286 18.286s18.286-8.174 18.286-18.286v-420.572h219.428v329.142h292.572v-329.144h219.428v420.572c0 10.112 8.192 18.286 18.286 18.286s18.286-8.174 18.286-18.286v-457.144zM1078.856 393.144c-4.682 0-9.362 1.792-12.928 5.358l-517.358 517.358-517.358-517.358c-7.15-7.15-18.706-7.15-25.856 0s-7.15 18.706 0 25.856l530.286 530.286c7.15 7.15 18.706 7.15 25.856 0l530.286-530.286c7.15-7.15 7.15-18.706 0-25.856-3.566-3.566-8.248-5.358-12.928-5.358zM896 704c-10.094 0-18.286 8.174-18.286 18.286v164.57h-164.572c-10.094 0-18.286 8.174-18.286 18.286s8.192 18.286 18.286 18.286h201.144v-201.142c0-10.112-8.192-18.286-18.286-18.286z" horiz-adv-x="1098" />
<glyph unicode="&#xe609;" d="M159.754 95.754c-101.534 0-159.754 54.956-159.754 150.808 0 92.702 58.22 145.878 159.754 145.878 12.598 0 22.822-10.202 22.822-22.822s-10.224-22.822-22.822-22.822c-114.11 0-114.11-75.45-114.11-100.234 0-70.77 37.338-105.164 114.11-105.164 12.598 0 22.822-10.202 22.822-22.822s-10.224-22.822-22.822-22.822zM342.33-64h-89.302c-77.046 0-116.094 46.398-116.094 137.914v345.32c0 75.038 35.694 155.784 114.11 155.784h91.288c12.598 0 22.822-10.202 22.822-22.822v-593.372c0-12.62-10.224-22.822-22.822-22.822zM251.042 529.372c-54.042 0-68.466-69.22-68.466-110.14v-345.32c0-81.086 33.844-92.27 70.45-92.27h66.48v547.728h-68.466zM1209.566 118.576c-12.598 0-22.822 10.202-22.822 22.822s10.224 22.822 22.822 22.822c75.722 0 114.11 30.718 114.11 91.288s-38.386 91.288-114.11 91.288c-12.598 0-22.822 10.202-22.822 22.822s10.224 22.822 22.822 22.822c100.028 0 159.754-51.19 159.754-136.932s-59.724-136.932-159.754-136.932zM1116.292-64h-89.302c-12.598 0-22.822 10.202-22.822 22.822v593.372c0 12.62 10.224 22.822 22.822 22.822h68.466c81.908 0 136.932-80.538 136.932-155.784v-345.32c0-91.516-39.048-137.914-116.096-137.914zM1049.812-18.356h66.48c36.606 0 70.452 11.182 70.452 92.27v345.32c0 53.198-36.674 110.14-91.288 110.14h-45.644v-547.728zM1110.336 552.194h-45.644c0 206.472-163.384 362.162-380.032 362.162s-380.032-155.692-380.032-362.162h-45.644c0 228.676 186.98 407.806 425.676 407.806s425.676-179.13 425.676-407.806z" horiz-adv-x="1370" />
<glyph unicode="&#xe60a;" d="M137.758-64c-79.83 0-137.758 61.078-137.758 145.248 0 84.082 59.218 147.486 137.758 147.486h154.978v-154.976c0-73.39-72.426-137.758-154.978-137.758zM137.758 194.294c-59.872 0-103.318-47.544-103.318-113.048 0-64.212 43.446-110.808 103.318-110.808 63.076 0 120.536 49.23 120.536 103.318v120.538h-120.538zM637.126 108.196c-84.014 0-154.976 66.502-154.976 145.248 0 79.952 70.962 147.486 154.976 147.486h137.758v-154.976c0-78.522-59.218-137.758-137.758-137.758zM637.126 366.49c-64.212 0-120.538-52.83-120.538-113.048 0-60.062 55.206-110.808 120.538-110.808 58.908 0 103.318 44.408 103.318 103.318v120.538h-103.318zM292.734 170.342h-34.44v586.726l516.59 202.932v-659.39h-34.438v608.87l-447.71-175.88zM751.4 778.482l12.582-32.060-482.224-189.232-12.582 32.060 482.224 189.232z" horiz-adv-x="776" />
<glyph unicode="&#xe60b;" d="M768-64h-409.6c-28.228 0-51.2 22.972-51.2 51.2v580.268c0 28.228 22.972 51.2 51.2 51.2h409.6c28.228 0 51.2-22.972 51.2-51.2v-580.268c0-28.228-22.972-51.2-51.2-51.2zM358.4 584.534c-9.42 0-17.068-7.646-17.068-17.068v-580.268c0-9.422 7.646-17.068 17.068-17.068h409.6c9.422 0 17.068 7.646 17.068 17.068v580.268c0 9.42-7.646 17.068-17.068 17.068h-409.6zM324.266 243.2h-102.4c-9.438 0-17.068 7.63-17.068 17.068v273.068c0 9.438 7.628 17.068 17.068 17.068h102.4c9.438 0 17.068-7.63 17.068-17.068v-273.068c0-9.438-7.63-17.068-17.068-17.068zM238.932 277.332h68.266v238.932h-68.266v-238.932zM324.266 379.732h-102.4c-9.438 0-17.068 7.63-17.068 17.068s7.628 17.068 17.068 17.068h102.4c9.438 0 17.068-7.63 17.068-17.068s-7.63-17.068-17.068-17.068zM705.674 4.268h-301.278c-9.438 0-17.068 7.63-17.068 17.068s7.63 17.068 17.068 17.068h301.26c9.438 0 17.068-7.63 17.068-17.068s-7.63-17.068-17.050-17.068zM733.866 106.668h-341.334c-9.438 0-17.068 7.63-17.068 17.068v375.466c0 9.438 7.63 17.068 17.068 17.068h341.334c9.438 0 17.068-7.63 17.068-17.068v-375.466c0-9.438-7.63-17.068-17.068-17.068zM409.6 140.8h307.2v341.334h-307.2v-341.334zM576.562 404.976c-11.914 0-21.52-9.644-21.52-21.52 0-11.894 9.61-21.52 21.52-21.52 11.878 0 21.52 9.61 21.52 21.52-0.018 11.86-9.644 21.52-21.52 21.52v0zM576.562 275.85c-11.914 0-21.52-9.644-21.52-21.52 0-11.894 9.61-21.52 21.52-21.52 11.878 0 21.52 9.61 21.52 21.52-0.018 11.878-9.644 21.52-21.52 21.52v0zM119.466 192c-28.228 0-51.2 22.972-51.2 51.2v153.6c0 28.228 22.972 51.2 51.2 51.2s51.2-22.972 51.2-51.2v-153.6c0-28.228-22.972-51.2-51.2-51.2zM119.466 413.866c-9.422 0-17.066-7.646-17.066-17.068v-153.6c0-9.422 7.646-17.068 17.068-17.068s17.068 7.646 17.068 17.068v153.6c0 9.422-7.646 17.068-17.068 17.068zM904.534 192c-28.228 0-51.2 22.972-51.2 51.2v153.6c0 28.228 22.972 51.2 51.2 51.2s51.2-22.972 51.2-51.2v-153.6c0-28.228-22.972-51.2-51.2-51.2zM904.534 413.866c-9.422 0-17.068-7.646-17.068-17.068v-153.6c0-9.422 7.646-17.068 17.068-17.068s17.068 7.646 17.068 17.068v153.6c0 9.422-7.646 17.068-17.068 17.068zM1006.932 311.466h-68.268c-9.438 0-17.068 7.63-17.068 17.068s7.63 17.068 17.068 17.068h51.2v102.4c0 263.492-214.374 477.866-477.868 477.866s-477.868-214.374-477.868-477.866v-102.4h51.2c9.438 0 17.066-7.63 17.066-17.068s-7.63-17.068-17.068-17.068h-68.266c-9.438 0-17.068 7.63-17.068 17.068v119.466c0 282.318 229.682 512 512 512s512-229.682 512-512v-119.466c0-9.438-7.63-17.068-17.068-17.068z" />
<glyph unicode="&#xe60c;" d="M358.572 157.866c-154.556 0-290.132 127.606-290.132 273.068v258.236c0 151.86 126.14 270.832 287.164 270.832 153.396 0 293.104-129.076 293.104-270.832v-258.236c0-145.46-135.578-273.068-290.132-273.068zM355.6 925.866c-124.382 0-253.030-88.542-253.030-236.698v-258.236c0-125.048 122.010-238.932 256-238.932s256 113.886 256 238.932v258.236c0 123.888-123.442 236.698-258.97 236.698zM355.6 69.564c-99.26 0-190.908 38.11-258.032 107.35-65.776 67.84-100.368 158.226-97.4 254.548v85.538c0 9.438 7.646 17.068 17.068 17.068s17.068-7.63 17.068-17.068v-86.068c-2.696-87.534 28.484-169.114 87.774-230.264 60.638-62.532 143.582-96.972 233.522-96.972 183.484 0 327.236 143.736 327.236 327.236v85.332c0 9.438 7.646 17.068 17.068 17.068s17.068-7.63 17.068-17.068v-85.332c0-202.634-158.736-361.37-361.37-361.37zM341.504 86.63h34.132v-150.63h-34.132v150.63zM358.572 806.4c-9.42 0-17.068 7.63-17.068 17.068v119.466c0 9.438 7.646 17.068 17.068 17.068s17.068-7.63 17.068-17.068v-119.466c0-9.438-7.646-17.068-17.068-17.068zM460.972 806.4c-9.42 0-17.068 7.63-17.068 17.068v97.826c0 9.438 7.646 17.068 17.068 17.068s17.068-7.63 17.068-17.068v-97.826c0-9.438-7.646-17.068-17.068-17.068zM256.17 806.4c-9.42 0-17.068 7.63-17.068 17.068v102.4c0 9.438 7.646 17.068 17.068 17.068s17.068-7.628 17.068-17.068v-102.4c0-9.438-7.646-17.068-17.068-17.068zM17.236 448h682.668v-34.134h-682.668v34.134zM269.516 686.932h-183.604c-9.42 0-17.068 7.63-17.068 17.068s7.646 17.068 17.068 17.068h183.604c9.42 0 17.068-7.63 17.068-17.068s-7.646-17.068-17.068-17.068zM269.516 584.534h-184.014c-9.42 0-17.068 7.63-17.068 17.068s7.646 17.068 17.068 17.068h184.014c9.42 0 17.068-7.63 17.068-17.068s-7.646-17.068-17.068-17.068zM631.194 686.932h-189.524c-9.42 0-17.068 7.63-17.068 17.068s7.646 17.068 17.068 17.068h189.524c9.422 0 17.068-7.63 17.068-17.068s-7.63-17.068-17.068-17.068zM631.636 584.534h-189.952c-9.42 0-17.068 7.63-17.068 17.068s7.646 17.068 17.068 17.068h189.952c9.422 0 17.068-7.63 17.068-17.068s-7.646-17.068-17.068-17.068zM269.516 482.132h-184.014c-9.42 0-17.068 7.63-17.068 17.068s7.646 17.068 17.068 17.068h184.014c9.42 0 17.068-7.63 17.068-17.068s-7.646-17.068-17.068-17.068zM631.636 482.132h-189.952c-9.42 0-17.068 7.63-17.068 17.068s7.646 17.068 17.068 17.068h189.952c9.422 0 17.068-7.63 17.068-17.068s-7.646-17.068-17.068-17.068z" horiz-adv-x="718" />
<glyph unicode="&#xe60d;" d="M1113.042-64c-73.662 0-133.566 59.904-133.566 133.566s59.904 133.566 133.566 133.566 133.566-59.904 133.566-133.566-59.904-133.566-133.566-133.566zM1113.042 158.61c-49.106 0-89.044-39.936-89.044-89.044s39.936-89.044 89.044-89.044 89.042 39.936 89.042 89.044-39.936 89.044-89.044 89.044zM378.436-64h-133.564c-12.31 0-22.26 9.952-22.26 22.26v912.696c0 56.586 32.456 89.044 89.044 89.044s89.044-32.456 89.044-89.044v-912.696c0-12.31-9.952-22.26-22.262-22.26zM267.13-19.478h89.044v890.434c0 32.034-12.488 44.522-44.522 44.522s-44.522-12.488-44.522-44.522v-890.434zM1001.76 381.216c-1.958 0-3.918 0.246-5.876 0.778-11.866 3.25-18.876 15.472-15.626 27.336l66.782 244.87c3.25 11.886 15.584 18.922 27.336 15.626 11.866-3.25 18.876-15.472 15.626-27.336l-66.784-244.87c-2.694-9.906-11.688-16.406-21.458-16.406zM734.61 448c-5.966 0-11.888 2.36-16.274 7.058l-45.924 49.198c-8.37 8.994-7.88 23.084 1.092 31.476 9.016 8.37 23.086 7.904 31.476-1.092l45.924-49.198c8.37-8.992 7.88-23.084-1.092-31.476-4.318-3.986-9.774-5.966-15.204-5.966zM467.478 225.39c-5.7 0-11.398 2.182-15.738 6.522-8.704 8.704-8.704 22.774 0 31.476l244.87 244.87c8.704 8.704 22.774 8.704 31.476 0s8.704-22.774 0-31.476l-244.87-244.87c-4.342-4.342-10.040-6.522-15.738-6.522zM777.616 246.138c-5.698 0-11.398 2.182-15.738 6.522-8.704 8.704-8.704 22.774 0 31.476l135.078 135.080c4.164 4.184 9.818 6.522 15.738 6.522h311.652c12.31 0 22.26-9.952 22.26-22.26s-9.952-22.26-22.26-22.26h-302.436l-128.558-128.558c-4.364-4.364-10.040-6.522-15.738-6.522zM378.436-64h-356.174c-12.31 0-22.26 9.952-22.26 22.26s9.952 22.26 22.26 22.26h356.174c12.31 0 22.262-9.952 22.262-22.26s-9.952-22.26-22.262-22.26zM244.87 203.13h-133.564c-12.31 0-22.26 9.952-22.26 22.26s9.95 22.26 22.26 22.26h133.564c12.31 0 22.262-9.952 22.262-22.26s-9.952-22.26-22.26-22.26zM1313.392 25.044h-91.27c-12.31 0-22.26 9.952-22.26 22.26s9.952 22.26 22.26 22.26h69.010v235.654l-82.52 82.52c-4.184 4.164-6.522 9.818-6.522 15.738v333.914c0 49.932-39.112 89.044-89.042 89.044h-133.566c-265.462 0-489.738-224.278-489.738-489.738v-267.13h126.354c12.31 0 22.26-9.952 22.26-22.26s-9.952-22.26-22.26-22.26h-148.614c-12.31 0-22.262 9.952-22.262 22.26v289.39c0 289.614 244.646 534.26 534.26 534.26h133.566c74.886 0 133.566-58.68 133.566-133.566v-324.696l82.52-82.52c4.184-4.164 6.522-9.818 6.522-15.738v-267.13c0-12.31-9.952-22.26-22.26-22.26zM1003.966 25.044h-106.318c-12.31 0-22.26 9.952-22.26 22.26s9.952 22.26 22.26 22.26h106.318c12.31 0 22.262-9.952 22.262-22.26s-9.972-22.26-22.26-22.26zM756.87-64c-98.192 0-178.086 79.894-178.086 178.086s79.894 178.086 178.086 178.086 178.086-79.894 178.086-178.086-79.894-178.086-178.086-178.086zM756.87 247.652c-73.66 0-133.564-59.904-133.564-133.566s59.904-133.566 133.566-133.566 133.566 59.904 133.566 133.566-59.904 133.566-133.566 133.566z" horiz-adv-x="1336" />
<glyph unicode="&#xe60e;" d="M768.342-64c-0.12 0-0.222 0-0.342 0h-750.932c-6.468 0-12.372 3.652-15.276 9.438s-2.254 12.698 1.62 17.87l102.4 136.534c3.226 4.302 8.278 6.826 13.654 6.826h546.134c5.376 0 10.428-2.526 13.654-6.826l100.692-134.246c3.362-3.124 5.462-7.578 5.462-12.51 0-9.456-7.646-17.084-17.068-17.084zM51.2-29.866h682.668l-76.8 102.4h-529.068l-76.8-102.4zM375.466 738.134h34.132v-648.534h-34.132v648.534zM0 960h34.134v-1024h-34.134v1024zM750.932 960h34.134v-1024h-34.134v1024zM546.134 721.068h-307.2c-48.076 0-94.020 22.972-122.88 61.44l-112.64 150.186c-3.892 5.172-4.506 12.084-1.62 17.87s8.806 9.438 15.276 9.438h750.932c6.468 0 12.374-3.652 15.274-9.438s2.254-12.698-1.62-17.87l-112.64-150.186c-28.86-38.468-74.802-61.44-122.88-61.44zM51.2 925.866l92.16-122.88c22.444-29.918 58.18-47.786 95.572-47.786h307.2c37.394 0 73.13 17.868 95.59 47.804l92.144 122.862h-682.668z" horiz-adv-x="786" />
<glyph unicode="&#xe60f;" d="M563.2 140.8h-136.534c-9.42 0-17.068 7.63-17.068 17.068v176.11c-119.466 51.166-119.466 191.3-119.466 267.622 0 9.438 7.646 17.068 17.068 17.068h375.466c9.422 0 17.068-7.628 17.068-17.068 0-76.322 0-216.438-119.466-267.622v-176.11c0-9.438-7.646-17.068-17.068-17.068zM443.734 174.932h102.4v170.668c0 7.202 4.524 13.636 11.298 16.060 94.226 33.86 106.956 126.96 108.082 222.874h-341.164c1.126-95.916 13.842-188.996 108.082-222.874 6.774-2.424 11.298-8.858 11.298-16.060v-170.668zM494.932 652.8c-84.686 0-153.6 68.898-153.6 153.6s68.916 153.6 153.6 153.6 153.6-68.898 153.6-153.6-68.914-153.6-153.6-153.6zM494.932 925.866c-65.878 0-119.466-53.606-119.466-119.466s53.588-119.466 119.466-119.466 119.466 53.606 119.466 119.466-53.59 119.466-119.466 119.466zM512-64c-251.682 0-512 70.212-512 187.732 0 84.412 139.724 154.742 355.926 179.182 9.334 0.922 17.818-5.682 18.876-15.052s-5.682-17.818-15.036-18.876c-188.688-21.298-325.632-82.398-325.632-145.254 0-72.654 196.25-153.6 477.868-153.6s477.866 80.948 477.866 153.6c0 62.838-136.892 123.938-325.512 145.254-9.37 1.076-16.094 9.524-15.036 18.876s9.558 15.956 18.876 15.052c216.132-24.456 355.806-94.788 355.806-179.182 0-117.52-260.318-187.732-512-187.732zM512 38.4c-161.144 0-324.266 35.174-324.266 102.4 0 55.45 105.2 80.674 167.902 90.742 9.2 1.502 18.058-4.812 19.558-14.13s-4.83-18.074-14.148-19.558c-101.394-16.316-139.18-43.658-139.18-57.054 0-23.158 102.4-68.268 290.132-68.268s290.132 45.106 290.132 68.268c0 13.328-37.514 40.55-138.154 56.884-9.302 1.52-15.634 10.292-14.114 19.576 1.52 9.318 10.24 15.634 19.576 14.114 62.31-10.102 166.826-35.312 166.826-90.572 0-67.226-163.124-102.4-324.266-102.4z" />
<glyph unicode="&#xe610;" d="M341.334 19.968c-9.438 0-17.068 7.646-17.068 17.068v87.74c0 9.422 7.63 17.068 17.068 17.068s17.068-7.646 17.068-17.068v-87.74c0-9.422-7.63-17.068-17.068-17.068zM409.6 19.968c-9.438 0-17.068 7.646-17.068 17.068v88.202c0 9.422 7.63 17.068 17.068 17.068s17.068-7.646 17.068-17.068v-88.202c0-9.422-7.63-17.068-17.068-17.068zM631.466-64h-512c-7.356 0-13.876 4.692-16.18 11.674-2.338 6.962 0.068 14.626 5.938 19.046 77.278 58.062 169.336 88.746 266.24 88.746 96.888 0 188.946-30.686 266.256-88.746 5.87-4.42 8.26-12.082 5.938-19.046-2.322-6.98-8.842-11.674-16.196-11.674zM176.948-29.866h397.022c-60.416 33.638-128.086 51.2-198.502 51.2-70.434 0-138.104-17.562-198.52-51.2zM375.466 243.2c-188.212 0-341.334 153.122-341.334 341.334s153.122 341.332 341.334 341.332 341.332-153.122 341.332-341.332-153.122-341.334-341.334-341.334zM375.466 891.732c-169.388 0-307.2-137.812-307.2-307.2s137.812-307.2 307.2-307.2 307.2 137.812 307.2 307.2-137.812 307.2-307.2 307.2zM375.466 106.89c-122.368 0-244.736 46.576-337.904 139.726-6.674 6.656-6.674 17.458 0 24.132s17.46 6.674 24.132 0c173.038-172.988 454.536-172.972 627.542 0 173.004 173.022 173.004 454.536 0 627.558-6.674 6.674-6.674 17.458 0 24.132s17.458 6.674 24.132 0c186.318-186.318 186.318-489.506 0-675.822-93.15-93.15-215.518-139.726-337.904-139.726zM17.068 209.068c-4.368 0-8.738 1.674-12.066 5-6.674 6.674-6.674 17.458 0 24.132l68.266 68.266c6.674 6.674 17.46 6.674 24.132 0s6.674-17.458 0-24.132l-68.266-68.266c-3.328-3.328-7.696-5-12.066-5zM665.6 857.6c-4.37 0-8.738 1.674-12.066 5-6.674 6.674-6.674 17.458 0 24.132l68.266 68.268c6.674 6.674 17.458 6.674 24.132 0s6.674-17.458 0-24.132l-68.266-68.268c-3.328-3.328-7.698-5-12.066-5z" horiz-adv-x="854" />
<glyph unicode="&#xe611;" d="M870.4-64h-716.8c-9.42 0-17.068 7.646-17.068 17.068v853.332c0 9.42 7.646 17.068 17.068 17.068h716.8c9.422 0 17.068-7.646 17.068-17.068v-853.332c0-9.422-7.646-17.068-17.068-17.068zM170.668-29.866h682.668v819.2h-682.668v-819.2zM699.732 789.332h-375.466c-9.42 0-17.068 7.646-17.068 17.068v136.534c0 9.422 7.646 17.068 17.068 17.068h375.466c9.422 0 17.068-7.646 17.068-17.068v-136.534c0-9.42-7.646-17.068-17.068-17.068zM341.334 823.466h341.334v102.4h-341.334v-102.4zM1006.932 789.332h-989.866c-9.42 0-17.068 7.646-17.068 17.068s7.646 17.068 17.068 17.068h989.866c9.422 0 17.068-7.646 17.068-17.068s-7.646-17.068-17.068-17.068zM324.266 123.732c-9.42 0-17.068 7.646-17.068 17.068v477.866c0 9.422 7.646 17.068 17.068 17.068s17.068-7.646 17.068-17.068v-477.866c0-9.422-7.646-17.068-17.068-17.068zM512 123.732c-9.42 0-17.068 7.646-17.068 17.068v477.866c0 9.422 7.646 17.068 17.068 17.068s17.068-7.646 17.068-17.068v-477.866c0-9.422-7.646-17.068-17.068-17.068zM699.732 123.732c-9.422 0-17.068 7.646-17.068 17.068v477.866c0 9.422 7.646 17.068 17.068 17.068s17.068-7.646 17.068-17.068v-477.866c0-9.422-7.646-17.068-17.068-17.068z" />
<glyph unicode="&#xe612;" d="M492.308 526.77c-276.066 0-492.308 95.154-492.308 216.616s216.242 216.616 492.308 216.616 492.308-95.154 492.308-216.616-216.24-216.616-492.308-216.616zM492.308 920.616c-270.928 0-452.924-91.648-452.924-177.23s181.996-177.23 452.924-177.23 452.924 91.648 452.924 177.23-181.996 177.23-452.924 177.23zM492.308 329.846c-276.066 0-492.308 95.154-492.308 216.616 0 10.87 8.822 19.692 19.692 19.692s19.692-8.822 19.692-19.692c0-85.582 181.996-177.23 452.924-177.23s452.924 91.648 452.924 177.23c0 10.87 8.822 19.692 19.692 19.692s19.692-8.822 19.692-19.692c0-121.462-216.24-216.616-492.308-216.616zM492.308 132.924c-276.066 0-492.308 95.154-492.308 216.616 0 10.87 8.822 19.692 19.692 19.692s19.692-8.822 19.692-19.692c0-85.582 181.996-177.23 452.924-177.23s452.924 91.648 452.924 177.23c0 10.87 8.822 19.692 19.692 19.692s19.692-8.822 19.692-19.692c0-121.462-216.24-216.616-492.308-216.616zM492.308-64c-276.066 0-492.308 95.154-492.308 216.616v590.77c0 10.87 8.822 19.692 19.692 19.692s19.692-8.822 19.692-19.692v-590.77c0-85.582 181.996-177.23 452.924-177.23s452.924 91.648 452.924 177.23v590.77c0 10.87 8.822 19.692 19.692 19.692s19.692-8.822 19.692-19.692v-590.77c0-121.462-216.24-216.616-492.308-216.616z" horiz-adv-x="986" />
<glyph unicode="&#xe613;" d="M477.868 277.332h-307.2c-57.412 0-102.4 44.988-102.4 102.4v494.932c0 9.422 7.63 17.068 17.068 17.068h477.866c9.438 0 17.068-7.646 17.068-17.068v-494.932c0-57.412-44.988-102.4-102.4-102.4zM102.4 857.6v-477.868c0-38.28 29.986-68.268 68.266-68.268h307.2c38.28 0 68.268 29.986 68.268 68.268v477.866h-443.734zM85.332 755.2h-68.266c-9.438 0-17.068 7.646-17.068 17.068s7.628 17.068 17.068 17.068h68.266c9.438 0 17.068-7.646 17.068-17.068s-7.63-17.068-17.068-17.068zM631.466 755.2h-68.266c-9.438 0-17.068 7.646-17.068 17.068s7.63 17.068 17.068 17.068h68.268c9.438 0 17.068-7.646 17.068-17.068s-7.63-17.068-17.068-17.068zM597.332 857.6h-546.134c-9.438 0-17.068 7.646-17.068 17.068s7.628 17.068 17.068 17.068h546.134c9.438 0 17.068-7.646 17.068-17.068s-7.63-17.068-17.068-17.068zM426.718-64v0h-204.85c-45.484 0-85.332 39.868-85.332 85.332 0 38.314 58.778 141.79 70.57 162.15 3.122 5.428 8.788 9.028 15.276 8.516 6.282-0.188 11.93-3.806 14.746-9.422l19.866-39.748 52.446 91.766c6.060 10.634 23.57 10.634 29.628 0l52.446-91.768 19.866 39.748c2.816 5.616 8.464 9.232 14.746 9.422 5.94 0.58 12.152-3.072 15.292-8.516 11.81-20.36 70.588-123.87 70.588-162.186 0-21.452-9.388-43.144-25.772-59.528-16.368-16.384-38.060-25.77-59.512-25.77zM221.014 138.462c-24.422-45.14-50.348-99.568-50.348-117.13 0-26.318 24.848-51.2 51.15-51.2h204.902c12.46 0 25.36 5.75 35.38 15.77s15.77 22.938 15.77 35.396c0 17.578-25.924 72.020-50.364 117.146l-19.694-39.424c-2.816-5.632-8.5-9.25-14.798-9.422-6.348-0.274-12.152 3.14-15.292 8.586l-53.454 93.542-53.452-93.524c-3.14-5.462-8.772-8.892-15.292-8.586-6.298 0.172-11.98 3.806-14.796 9.422l-19.712 39.424zM392.534 857.6c-9.438 0-17.068 7.646-17.068 17.068 0 28.228-22.972 51.2-51.2 51.2s-51.2-22.972-51.2-51.2c0-9.422-7.63-17.068-17.068-17.068s-17.068 7.646-17.068 17.068c0 47.052 38.282 85.332 85.332 85.332s85.332-38.28 85.332-85.332c0-9.422-7.63-17.068-17.068-17.068z" horiz-adv-x="650" />
<glyph unicode="&#xe614;" d="M921.6 4.268h-512c-56.474 0-102.4 45.926-102.4 102.4v341.334c0 56.474 45.926 102.4 102.4 102.4h512c56.474 0 102.4-45.926 102.4-102.4v-341.332c0-56.474-45.926-102.4-102.4-102.4zM409.6 516.268c-37.65 0-68.266-30.618-68.266-68.268v-341.334c0-37.65 30.618-68.268 68.266-68.268h512c37.65 0 68.266 30.618 68.266 68.268v341.334c0 37.65-30.618 68.268-68.268 68.268h-512zM665.6-64c-9.438 0-17.068 7.646-17.068 17.068v68.268c0 9.422 7.63 17.068 17.068 17.068s17.068-7.646 17.068-17.068v-68.268c0-9.422-7.63-17.068-17.068-17.068zM836.268-64h-341.334c-9.438 0-17.068 7.646-17.068 17.068s7.63 17.068 17.068 17.068h341.334c9.438 0 17.068-7.646 17.068-17.068s-7.63-17.068-17.068-17.068zM1006.932 140.8h-682.668c-9.438 0-17.068 7.646-17.068 17.068s7.63 17.068 17.068 17.068h682.668c9.438 0 17.068-7.646 17.068-17.068s-7.63-17.068-17.068-17.068zM665.6 106.668c-9.422 0-17.068-7.646-17.068-17.068s7.646-17.068 17.068-17.068c9.422 0 17.068 7.646 17.068 17.068s-7.646 17.068-17.068 17.068v0zM221.866 448h-102.4c-9.438 0-17.068 7.646-17.068 17.068s7.63 17.068 17.068 17.068h102.4c9.438 0 17.068-7.646 17.068-17.068s-7.628-17.068-17.068-17.068zM221.866 550.4h-153.6c-37.65 0-68.266 30.618-68.266 68.266v273.068c0 37.65 30.618 68.268 68.266 68.268h409.6c37.65 0 68.266-30.618 68.266-68.268v-256c0-9.42-7.63-17.068-17.068-17.068h-494.932c0-18.824 15.308-34.132 34.134-34.132h153.6c9.438 0 17.068-7.646 17.068-17.068s-7.628-17.068-17.068-17.068zM34.134 652.8h477.868v238.932c0 18.826-15.31 34.134-34.132 34.134h-409.6c-18.826 0-34.134-15.308-34.134-34.134v-238.932z" />
<glyph unicode="&#xe615;" d="M665.616-64c-5.514 0-10.924 2.662-14.216 7.596l-102.4 153.6c-1.86 2.798-2.866 6.11-2.866 9.472v187.734c0 71.1-71.048 127.538-146.26 187.29l-17.988 14.32c-7.372 5.904-8.55 16.64-2.662 23.996 5.87 7.356 16.64 8.55 23.978 2.662l17.904-14.268c81.852-65.024 159.164-126.414 159.164-214v-182.562l99.534-149.298c5.222-7.85 3.106-18.432-4.726-23.672-2.918-1.928-6.212-2.866-9.456-2.866zM426.684-64c-5.324 0-10.564 2.492-13.892 7.134-33.826 47.258-37.324 57.754-37.324 112.332v63.37l-81.8 130.902c-22.272 24.098-21.776 67.618 1.468 90.864 23.758 23.774 68.642 23.774 92.4 0l102.4-102.4c6.674-6.674 6.674-17.458 0-24.132s-17.46-6.674-24.132 0l-102.4 102.4c-10.308 10.308-33.808 10.308-44.134 0-10.308-10.308-10.308-33.808 0-44.134 0.922-0.922 1.724-1.928 2.406-3.020l85.334-136.534c1.69-2.714 2.594-5.854 2.594-9.044v-68.266c0-46.95 1.452-51.268 30.942-92.466 5.496-7.664 3.722-18.312-3.942-23.826-3.004-2.134-6.486-3.174-9.916-3.174zM273.068 72.534h-170.668c-37.65 0-68.266 30.618-68.266 68.266v443.732c0 37.65 30.618 68.268 68.266 68.268h238.932c37.65 0 68.266-30.618 68.266-68.268v-153.6c0-9.438-7.646-17.068-17.068-17.068s-17.068 7.63-17.068 17.068v153.6c0 18.824-15.31 34.132-34.132 34.132h-238.932c-18.826 0-34.134-15.308-34.134-34.132v-443.734c0-18.826 15.308-34.134 34.134-34.134h170.668c9.42 0 17.068-7.63 17.068-17.068s-7.646-17.068-17.068-17.068zM290.132 721.068c-4.368 0-8.738 1.674-12.066 5-14.49 14.49-44.288 29.134-73.266 29.134s-58.778-14.644-73.266-29.134c-6.674-6.674-17.46-6.674-24.132 0s-6.674 17.46 0 24.132c18.842 18.858 57.36 39.134 97.4 39.134s78.558-20.276 97.4-39.134c6.674-6.674 6.674-17.46 0-24.132-3.328-3.328-7.698-5-12.066-5zM341.334 789.332c-4.368 0-8.738 1.674-12.066 5.002-29.968 29.968-58.676 46.198-124.466 46.198s-94.498-16.23-124.466-46.198c-6.674-6.674-17.46-6.674-24.132 0s-6.674 17.458 0 24.132c34.698 34.698 71.662 56.202 148.598 56.202s113.904-21.504 148.598-56.202c6.674-6.674 6.674-17.458 0-24.132-3.328-3.328-7.698-5.002-12.066-5.002zM392.534 857.6c-4.37 0-8.738 1.674-12.066 5-46.712 46.712-92.69 63.266-175.668 63.266s-128.956-16.554-175.668-63.266c-6.674-6.674-17.458-6.674-24.132 0s-6.674 17.458 0 24.132c53.402 53.42 107.554 73.268 199.8 73.268s146.398-19.85 199.8-73.268c6.674-6.674 6.674-17.458 0-24.132-3.328-3.328-7.698-5-12.066-5zM153.6 550.4c-9.438 0-17.068-7.646-17.068-17.068s7.628-17.068 17.068-17.068 17.068 7.646 17.068 17.068c0 9.42-7.628 17.068-17.068 17.068v0zM221.866 550.4c-9.438 0-17.068-7.646-17.068-17.068s7.628-17.068 17.068-17.068 17.068 7.646 17.068 17.068c0 9.42-7.628 17.068-17.068 17.068v0zM290.132 550.4c-9.438 0-17.068-7.646-17.068-17.068s7.63-17.068 17.068-17.068 17.068 7.646 17.068 17.068c0 9.42-7.63 17.068-17.068 17.068v0zM153.6 448c-9.438 0-17.068-7.646-17.068-17.068s7.628-17.068 17.068-17.068 17.068 7.646 17.068 17.068c0 9.422-7.628 17.068-17.068 17.068v0zM221.866 448c-9.438 0-17.068-7.646-17.068-17.068s7.628-17.068 17.068-17.068 17.068 7.646 17.068 17.068c0 9.422-7.628 17.068-17.068 17.068v0zM153.6 345.6c-9.438 0-17.068-7.646-17.068-17.068s7.628-17.068 17.068-17.068 17.068 7.646 17.068 17.068c0 9.422-7.628 17.068-17.068 17.068v0zM221.866 345.6c-9.438 0-17.068-7.646-17.068-17.068s7.628-17.068 17.068-17.068 17.068 7.646 17.068 17.068c0 9.422-7.628 17.068-17.068 17.068v0zM153.6 243.2c-9.438 0-17.068-7.646-17.068-17.068s7.628-17.068 17.068-17.068 17.068 7.646 17.068 17.068c0 9.422-7.628 17.068-17.068 17.068v0zM221.866 243.2c-9.438 0-17.068-7.646-17.068-17.068s7.628-17.068 17.068-17.068 17.068 7.646 17.068 17.068c0 9.422-7.628 17.068-17.068 17.068v0zM290.132 448c-9.438 0-17.068-7.646-17.068-17.068s7.63-17.068 17.068-17.068 17.068 7.646 17.068 17.068c0 9.422-7.63 17.068-17.068 17.068v0z" horiz-adv-x="684" />
<glyph unicode="&#xe616;" d="M512-64h-409.6c-56.474 0-102.4 45.926-102.4 102.4v819.2c0 56.474 45.926 102.4 102.4 102.4h409.6c56.474 0 102.4-45.926 102.4-102.4v-819.2c0-56.474-45.926-102.4-102.4-102.4zM102.4 925.866c-37.65 0-68.266-30.618-68.266-68.266v-819.2c0-37.65 30.618-68.266 68.266-68.266h409.6c37.65 0 68.268 30.618 68.268 68.268v819.2c0 37.65-30.618 68.268-68.268 68.268h-409.6zM597.332 755.2h-580.268c-9.438 0-17.068 7.628-17.068 17.068s7.628 17.068 17.068 17.068h580.268c9.438 0 17.068-7.63 17.068-17.068s-7.63-17.068-17.068-17.068zM597.332 106.668h-580.268c-9.438 0-17.068 7.63-17.068 17.068s7.628 17.068 17.068 17.068h580.268c9.438 0 17.068-7.63 17.068-17.068s-7.63-17.068-17.068-17.068zM426.666 823.466h-238.932c-9.438 0-17.068 7.63-17.068 17.068s7.628 17.068 17.068 17.068h238.932c9.438 0 17.068-7.63 17.068-17.068s-7.63-17.068-17.068-17.068zM307.2-12.8c-28.228 0-51.2 22.972-51.2 51.2s22.972 51.2 51.2 51.2 51.2-22.972 51.2-51.2-22.972-51.2-51.2-51.2zM307.2 55.466c-9.42 0-17.068-7.646-17.068-17.068s7.646-17.068 17.068-17.068 17.068 7.646 17.068 17.068-7.646 17.068-17.068 17.068z" horiz-adv-x="614" />
<glyph unicode="&#xe617;" d="M529.068-64h-443.734c-47.052 0-85.332 38.28-85.332 85.332v853.332c0 47.052 38.28 85.332 85.332 85.332h443.734c47.052 0 85.332-38.28 85.332-85.332v-853.332c0-47.052-38.28-85.332-85.332-85.332zM85.332 925.866c-28.228 0-51.2-22.972-51.2-51.2v-853.332c0-28.228 22.972-51.2 51.2-51.2h443.734c28.228 0 51.2 22.972 51.2 51.2v853.332c0 28.228-22.972 51.2-51.2 51.2h-443.734zM597.332 345.6h-580.268c-9.42 0-17.068 7.63-17.068 17.068s7.646 17.068 17.068 17.068h580.268c9.422 0 17.068-7.63 17.068-17.068s-7.646-17.068-17.068-17.068zM307.2 38.4c-65.878 0-119.466 53.606-119.466 119.466s53.588 119.466 119.466 119.466 119.466-53.606 119.466-119.466-53.588-119.466-119.466-119.466zM307.2 243.2c-47.052 0-85.332-38.28-85.332-85.332s38.28-85.332 85.332-85.332 85.334 38.28 85.334 85.332-38.282 85.332-85.332 85.332zM273.068 209.068v-102.4l85.332 51.2-85.332 51.2zM119.466 482.132h102.4v-34.132h-102.4v34.132zM119.466 550.4h102.4v-34.132h-102.4v34.132zM119.466 618.666h102.4v-34.132h-102.4v34.132zM256 482.132h102.4v-34.132h-102.4v34.132zM256 550.4h102.4v-34.132h-102.4v34.132zM256 618.666h102.4v-34.132h-102.4v34.132zM392.534 482.132h102.4v-34.132h-102.4v34.132zM392.534 550.4h102.4v-34.132h-102.4v34.132zM392.534 618.666h102.4v-34.132h-102.4v34.132zM119.466 686.932h102.4v-34.134h-102.4v34.134zM392.534 686.932h102.4v-34.134h-102.4v34.134zM119.466 755.2h102.4v-34.134h-102.4v34.134zM955.732 448c-37.65 0-68.268 30.618-68.268 68.268v136.532c0 37.65 30.618 68.268 68.268 68.268s68.268-30.618 68.268-68.268v-136.534c0-37.65-30.618-68.266-68.268-68.266zM955.732 686.932c-18.826 0-34.134-15.308-34.134-34.134v-136.532c0-18.824 15.308-34.132 34.134-34.132s34.134 15.31 34.134 34.132v136.534c0 18.824-15.308 34.132-34.134 34.132zM904.534 499.2c-47.052 0-85.332 38.282-85.332 85.334s38.28 85.332 85.332 85.332v-34.134c-28.228 0-51.2-22.972-51.2-51.2s22.972-51.2 51.2-51.2v-34.134zM853.332 24.236c-75.282 0-136.534 61.252-136.534 136.534v580.268c0 28.228-22.972 51.2-51.2 51.2h-68.268v34.132h68.268c47.052 0 85.332-38.28 85.332-85.332v-580.268c0-56.474 45.926-102.4 102.4-102.4s102.4 45.926 102.4 102.4v307.2h34.134v-307.2c0-75.28-61.252-136.534-136.534-136.534z" />
<glyph unicode="&#xe618;" d="M988.69 218.482h-52.966c-9.764 0-17.654 7.91-17.654 17.654s7.892 17.654 17.654 17.654h52.966c19.474 0 35.31 15.836 35.31 35.31v600.276c0 19.474-15.836 35.31-35.31 35.31h-918.068c-19.474 0-35.31-15.838-35.31-35.31v-600.276c0-19.474 15.838-35.31 35.31-35.31h300.138c9.762 0 17.656-7.91 17.656-17.654s-7.892-17.654-17.654-17.654h-300.138c-38.948 0-70.62 31.674-70.62 70.62v600.276c0 38.948 31.672 70.62 70.62 70.62h918.068c38.948 0 70.622-31.674 70.622-70.62v-600.276c0-38.948-31.674-70.62-70.62-70.62zM988.69 289.102h-52.966c-9.764 0-17.654 7.91-17.654 17.654s7.892 17.654 17.654 17.654h17.654v529.654h-847.448v-529.654h264.828c9.762 0 17.654-7.91 17.654-17.654s-7.892-17.654-17.654-17.654h-300.138v600.276h918.068v-600.276zM812.138-64h-317.794v494.346h317.794v-494.346zM529.654-28.69h247.172v423.724h-247.172v-423.724zM582.62 324.414c-9.764 0-17.654-7.91-17.654-17.654s7.892-17.654 17.654-17.654c9.764 0 17.654 7.91 17.654 17.654s-7.892 17.654-17.654 17.654v0zM653.24 324.414c-9.764 0-17.654-7.91-17.654-17.654s7.892-17.654 17.654-17.654c9.764 0 17.654 7.91 17.654 17.654s-7.892 17.654-17.654 17.654v0zM582.62 218.482c-9.764 0-17.654-7.91-17.654-17.654s7.892-17.654 17.654-17.654c9.764 0 17.654 7.91 17.654 17.654s-7.892 17.654-17.654 17.654v0zM653.24 218.482c-9.764 0-17.654-7.91-17.654-17.654s7.892-17.654 17.654-17.654c9.764 0 17.654 7.91 17.654 17.654s-7.892 17.654-17.654 17.654v0zM582.62 112.552c-9.764 0-17.654-7.91-17.654-17.654s7.892-17.654 17.654-17.654c9.764 0 17.654 7.91 17.654 17.654s-7.892 17.654-17.654 17.654v0zM653.24 112.552c-9.764 0-17.654-7.91-17.654-17.654s7.892-17.654 17.654-17.654c9.764 0 17.654 7.91 17.654 17.654s-7.892 17.654-17.654 17.654v0zM723.862 324.414c-9.764 0-17.654-7.91-17.654-17.654s7.892-17.654 17.654-17.654c9.764 0 17.654 7.91 17.654 17.654s-7.892 17.654-17.654 17.654v0zM723.862 218.482c-9.764 0-17.654-7.91-17.654-17.654s7.892-17.654 17.654-17.654c9.764 0 17.654 7.91 17.654 17.654s-7.892 17.654-17.654 17.654v0zM723.862 112.552c-9.764 0-17.654-7.91-17.654-17.654s7.892-17.654 17.654-17.654c9.764 0 17.654 7.91 17.654 17.654s-7.892 17.654-17.654 17.654v0zM761.908 573.582c-3.39 0-6.85 0.988-9.888 3.036-59.11 39.99-138.486 39.972-197.578 0-8.086-5.49-19.050-3.318-24.524 4.732-5.472 8.086-3.336 19.050 4.732 24.524 70.938 47.988 166.24 48.004 237.18 0 8.068-5.472 10.188-16.438 4.732-24.524-3.424-5.048-8.986-7.768-14.654-7.768zM491.132 661.38c-5.544 0-11.016 2.612-14.46 7.504-5.596 7.98-3.69 18.996 4.29 24.594 103.054 72.474 241.522 72.474 344.54 0 7.98-5.614 9.904-16.614 4.29-24.594s-16.63-9.904-24.61-4.29c-90.854 63.912-212.974 63.928-303.916 0-3.072-2.172-6.62-3.214-10.134-3.214zM598.334 485.27c-5.95 0-11.776 3-15.078 8.456-5.086 8.334-2.454 19.19 5.88 24.276 39.548 24.082 88.648 24.082 128.248 0 8.332-5.068 10.964-15.924 5.898-24.258-5.068-8.316-15.89-11-24.276-5.896-28.212 17.196-63.276 17.178-91.49 0-2.894-1.748-6.056-2.578-9.182-2.578z" horiz-adv-x="1060" />
<glyph unicode="&#xe619;" d="M1280-64h-1163.636c-64.162 0-116.364 52.202-116.364 116.364v93.092c0 12.87 10.426 23.274 23.272 23.274h558.544c12.846 0 23.274-10.404 23.274-23.274v-23.274h186.182v23.274c0 12.87 10.426 23.274 23.274 23.274h558.544c12.846 0 23.272-10.404 23.272-23.274v-93.092c0-64.164-52.202-116.364-116.364-116.364zM46.546 122.182v-69.818c0-38.494 31.326-69.818 69.818-69.818h1163.636c38.492 0 69.818 31.326 69.818 69.818v69.818h-512v-23.274c0-12.87-10.426-23.274-23.274-23.274h-232.726c-12.846 0-23.274 10.404-23.274 23.274v23.274h-512zM1326.546 122.182c-12.846 0-23.272 10.404-23.272 23.274v698.182c0 38.494-31.326 69.818-69.818 69.818h-1070.546c-38.492 0-69.818-31.324-69.818-69.818v-698.182c0-12.87-10.426-23.274-23.272-23.274s-23.272 10.404-23.272 23.274v698.182c0 64.164 52.202 116.364 116.364 116.364h1070.546c64.164 0 116.364-52.202 116.364-116.364v-698.182c0-12.87-10.426-23.274-23.272-23.274zM1256.728 215.274h-1117.090v651.636h1117.090v-651.636zM186.182 261.818h1024v558.544h-1024v-558.544z" horiz-adv-x="1396" />
<glyph unicode="&#xe61a;" d="M614.4 144.896c-16.424 0-32.010 1.126-43.848 3.174l-513.208 88.474c-32.154 5.55-57.344 35.452-57.344 68.096v593.92c0 33.874 27.566 61.44 61.44 61.44h1105.92c33.874 0 61.44-27.566 61.44-61.44v-593.92c0-32.644-25.19-62.546-57.364-68.096l-513.208-88.474c-11.818-2.068-27.402-3.174-43.826-3.174zM61.44 919.040c-11.304 0-20.48-9.196-20.48-20.48v-593.92c0-12.636 10.916-25.6 23.368-27.73l513.208-88.474c18.964-3.256 54.804-3.256 73.77 0l513.208 88.474c12.412 2.13 23.326 15.094 23.326 27.73v593.92c0 11.284-9.174 20.48-20.48 20.48h-1105.92zM1146.88 345.6h-1064.96v532.48h1064.96v-532.48zM122.88 386.56h983.040v450.56h-983.040v-450.56zM511.12 13.434c-11.324 0-20.48 9.174-20.48 20.48v145.162c0 11.304 9.154 20.48 20.48 20.48s20.48-9.174 20.48-20.48v-145.162c0-11.304-9.154-20.48-20.48-20.48zM717.682 13.434c-11.326 0-20.48 9.174-20.48 20.48v145.162c0 11.304 9.154 20.48 20.48 20.48s20.48-9.174 20.48-20.48v-145.162c0-11.304-9.154-20.48-20.48-20.48zM1004.092-64c-3.052 0-6.164 0.676-9.092 2.13-103.588 51.466-238.736 79.79-380.6 79.79s-277.012-28.324-380.58-79.79c-10.18-5.060-22.426-0.88-27.464 9.236-5.038 10.138-0.902 22.426 9.216 27.442 109.118 54.212 250.778 84.070 398.828 84.070s289.71-29.86 398.848-84.050c10.116-5.038 14.254-17.326 9.216-27.442-3.584-7.208-10.834-11.386-18.37-11.386zM655.36 263.68c0-22.622-18.338-40.96-40.96-40.96s-40.96 18.338-40.96 40.96c0 22.622 18.338 40.96 40.96 40.96s40.96-18.338 40.96-40.96z" horiz-adv-x="1230" />
<glyph unicode="&#xe61b;" d="M887.466 413.866h-750.932v443.732h750.932v-443.732zM170.668 448h682.668v375.466h-682.668v-375.466zM358.4 140.8h-238.932c-9.438 0-17.068 7.63-17.068 17.068s7.63 17.068 17.068 17.068h238.932c9.438 0 17.068-7.63 17.068-17.068s-7.63-17.068-17.068-17.068zM221.866 72.534h-102.4c-9.438 0-17.068 7.63-17.068 17.068s7.63 17.068 17.068 17.068h102.4c9.438 0 17.068-7.63 17.068-17.068s-7.628-17.068-17.068-17.068zM921.6 106.668h-409.6v102.4h409.6v-102.4zM546.134 140.8h341.334v34.134h-341.334v-34.134zM1006.932-64h-989.866c-9.438 0-17.068 7.63-17.068 17.068v238.932c0 47.052 38.28 85.332 85.332 85.332h853.332c47.052 0 85.332-38.28 85.332-85.332v-238.932c0-9.438-7.63-17.068-17.068-17.068zM34.134-29.866h955.732v221.866c0 28.228-22.972 51.2-51.2 51.2h-853.332c-28.228 0-51.2-22.972-51.2-51.2v-221.866zM904.534 311.466h-785.068c-47.052 0-85.332 38.28-85.332 85.332v477.866c0 47.054 38.282 85.334 85.332 85.334h785.068c47.052 0 85.332-38.282 85.332-85.334v-477.866c0-47.052-38.28-85.332-85.332-85.332zM119.466 925.866c-28.228 0-51.2-22.972-51.2-51.2v-477.868c0-28.228 22.972-51.2 51.2-51.2h785.068c28.228 0 51.2 22.972 51.2 51.2v477.866c0 28.228-22.972 51.2-51.2 51.2h-785.068z" />
<glyph unicode="&#xe61c;" d="M929.184-64h-682.668c-10.468 0-18.962 8.496-18.962 18.962s8.496 18.962 18.962 18.962h682.668c10.468 0 18.962-8.496 18.962-18.962s-8.496-18.962-18.962-18.962zM568.89-64c-10.468 0-18.962 8.496-18.962 18.962v113.778c0 10.468 8.496 18.962 18.962 18.962s18.962-8.496 18.962-18.962v-113.778c0-10.468-8.496-18.962-18.962-18.962zM18.964 277.332h1099.852v-37.926h-1099.852v37.926zM1042.962 49.778h-948.148c-52.28 0-94.814 42.534-94.814 94.816v720.592c0 52.28 42.534 94.814 94.814 94.814h948.148c52.28 0 94.816-42.534 94.816-94.814v-720.592c0-52.28-42.534-94.816-94.816-94.816zM94.814 922.074c-31.364 0-56.89-25.524-56.89-56.89v-720.592c0-31.366 25.524-56.89 56.89-56.89h948.148c31.366 0 56.888 25.524 56.888 56.89v720.592c0 31.366-25.524 56.89-56.888 56.89h-948.148zM568.89 125.63c-20.916 0-37.926 17.010-37.926 37.926s17.010 37.926 37.926 37.926 37.926-17.010 37.926-37.926-17.010-37.926-37.926-37.926zM568.908 163.556c0 0-0.038 0-0.038 0l0.020-18.962 0.020 18.962z" horiz-adv-x="1138" />
<glyph unicode="&#xe61d;" d="M877.714-64h-658.286c-10.094 0-18.286 8.192-18.286 18.286s8.192 18.286 18.286 18.286h658.286c10.094 0 18.286-8.192 18.286-18.286s-8.192-18.286-18.286-18.286zM713.51-64c-0.128 0-0.256 0.018-0.366 0h-329.142c-5.998 0-11.61 2.944-15.032 7.864-3.418 4.938-4.188 11.226-2.104 16.842l54.858 146.286c2.688 7.13 9.51 11.866 17.134 11.866h219.428c7.626 0 14.446-4.736 17.134-11.866l53.668-143.104c1.72-2.778 2.726-6.090 2.726-9.6-0.018-10.094-8.21-18.286-18.304-18.286zM410.386-27.428h276.37l-41.144 109.714h-194.086l-41.144-109.714zM987.428 228.572h-877.714v621.714h877.714v-621.714zM146.286 265.144h804.57v548.572h-804.572v-548.572zM548.572 137.144c-20.168 0-36.572 16.402-36.572 36.572s16.402 36.572 36.572 36.572 36.572-16.402 36.572-36.572-16.402-36.572-36.572-36.572zM548.59 173.714c0 0-0.038 0-0.038 0l0.018-18.286 0.018 18.286zM1005.714 82.286h-914.286c-50.414 0-91.43 41.014-91.43 91.428v694.856c0 50.414 41.016 91.428 91.43 91.428h914.286c50.414 0 91.428-41.014 91.428-91.428v-694.856c0-50.414-41.016-91.428-91.428-91.428zM91.43 923.428c-30.246 0-54.856-24.612-54.856-54.856v-694.856c0-30.246 24.612-54.856 54.856-54.856h914.286c30.244 0 54.856 24.612 54.856 54.856v694.856c0 30.246-24.614 54.856-54.856 54.856h-914.286z" horiz-adv-x="1098" />
<glyph unicode="&#xe61e;" d="M512 55.5c-216.438 0-392.534 176.094-392.534 392.534s176.094 392.534 392.534 392.534 392.534-176.094 392.534-392.534-176.094-392.534-392.534-392.534zM512 806.434c-197.632 0-358.4-160.768-358.4-358.4s160.768-358.4 358.4-358.4 358.4 160.768 358.4 358.4-160.768 358.4-358.4 358.4zM645.564 413.9h-167.698v244.872c0 9.422 7.646 17.068 17.068 17.068s17.068-7.646 17.068-17.068v-210.738h133.564c9.422 0 17.068-7.646 17.068-17.068s-7.646-17.068-17.068-17.068zM921.6-64h-819.2c-56.474 0-102.4 45.926-102.4 102.4v819.2c0 56.474 45.926 102.4 102.4 102.4h819.2c56.474 0 102.4-45.926 102.4-102.4v-819.2c0-56.474-45.926-102.4-102.4-102.4zM102.4 925.866c-37.65 0-68.266-30.618-68.266-68.266v-819.2c0-37.65 30.618-68.266 68.266-68.266h819.2c37.65 0 68.266 30.618 68.266 68.268v819.2c0 37.65-30.618 68.268-68.268 68.268h-819.2z" />
<glyph unicode="&#xe61f;" d="M170.668 721.068h-68.266c-45.448 0-85.332 39.868-85.332 85.332v34.134c0 71.458 70.606 119.466 136.532 119.466h102.4c9.438 0 17.068-7.646 17.068-17.068v-119.466c0-57.412-44.988-102.4-102.4-102.4zM153.6 925.866c-48.436 0-102.4-35.038-102.4-85.332v-34.134c0-26.318 24.882-51.2 51.2-51.2h68.266c38.282 0 68.266 29.986 68.266 68.266v102.4h-85.332zM17.068 789.332c-9.438 0-17.068 7.646-17.068 17.068v68.268c0 9.42 7.628 17.068 17.068 17.068s17.068-7.646 17.068-17.068v-68.268c0-9.42-7.628-17.068-17.068-17.068zM409.6 721.068h-68.266c-57.412 0-102.4 44.988-102.4 102.4v119.466c0 9.422 7.628 17.068 17.066 17.068h102.4c65.928 0 136.534-48.010 136.534-119.466v-34.132c0-45.466-39.884-85.334-85.332-85.334zM273.068 925.866v-102.4c0-38.282 29.986-68.266 68.266-68.266h68.266c26.318 0 51.2 24.882 51.2 51.2v34.134c0 50.294-53.964 85.332-102.4 85.332h-85.332zM494.932 789.332c-9.438 0-17.068 7.646-17.068 17.068v68.268c0 9.42 7.63 17.068 17.068 17.068s17.068-7.646 17.068-17.068v-68.268c0-9.42-7.63-17.068-17.068-17.068zM904.534-64h-136.534c-45.448 0-85.332 39.868-85.332 85.332v426.668c0 76.562 67.466 136.534 153.6 136.534s153.6-59.972 153.6-136.534v-426.666c0-45.466-39.884-85.332-85.332-85.332zM836.268 550.4c-58.71 0-119.466-38.298-119.466-102.4v-426.666c0-26.318 24.884-51.2 51.2-51.2h136.534c26.318 0 51.2 24.884 51.2 51.2v426.666c0 64.102-60.756 102.4-119.466 102.4zM870.4 546.628c-9.438 0-17.068 7.646-17.068 17.068v54.972h-34.134v-54.972c0-9.42-7.63-17.068-17.068-17.068s-17.068 7.646-17.068 17.068v72.038c0 9.422 7.63 17.068 17.068 17.068h68.266c9.438 0 17.068-7.646 17.068-17.068v-72.038c0-9.42-7.63-17.068-17.068-17.068zM972.8 38.4h-273.068c-9.438 0-17.068 7.646-17.068 17.068s7.63 17.068 17.068 17.068h273.068c9.438 0 17.068-7.646 17.068-17.068s-7.63-17.068-17.068-17.068zM972.8 413.866h-273.068c-9.438 0-17.068 7.646-17.068 17.068s7.63 17.068 17.068 17.068h273.068c9.438 0 17.068-7.646 17.068-17.068s-7.63-17.068-17.068-17.068zM307.2-64c-169.388 0-307.2 137.812-307.2 307.2v170.668c0 105.266 82.466 187.734 187.734 187.734 9.438 0 17.068-7.646 17.068-17.068s-7.628-17.068-17.068-17.068c-86.136 0-153.6-67.466-153.6-153.6v-170.668c0-150.562 122.504-273.068 273.068-273.068 163.020 0 238.932 86.768 238.932 273.068v341.334c0 111.65 53.11 170.666 153.6 170.666h51.2c64.12 0 102.4-44.664 102.4-119.466 0-9.42-7.63-17.068-17.068-17.068s-17.068 7.646-17.068 17.068c0 38.928-11.844 85.332-68.268 85.332h-51.2c-51.284 0-119.466-14.148-119.466-136.532v-341.334c0-203.844-91.87-307.2-273.068-307.2zM256 499.2c-47.052 0-85.332 38.282-85.332 85.334s38.282 85.332 85.332 85.332 85.332-38.28 85.332-85.332-38.282-85.332-85.332-85.332zM256 635.732c-28.228 0-51.2-22.972-51.2-51.2s22.972-51.2 51.2-51.2 51.2 22.972 51.2 51.2-22.972 51.2-51.2 51.2z" horiz-adv-x="990" />
<glyph unicode="&#xe620;" d="M1313.392-64h-1291.13c-12.31 0-22.26 9.952-22.26 22.26v422.956c0 56.586 32.456 89.044 89.044 89.044h66.782c12.31 0 22.26-9.952 22.26-22.26 0-26.578 62.152-66.784 155.826-66.784 107.654 0 155.826 33.548 155.826 66.784 0 7.324 3.606 14.18 9.64 18.344s13.712 5.098 20.592 2.426l756.87-289.392c38.866-13.824 58.814-35.884 58.814-65.29v-155.826c0-12.31-9.952-22.26-22.26-22.26zM44.522-19.478h1246.608v133.564c0 8.592-9.994 16.518-29.74 23.574l-732.918 280.198c-17.186-43.142-74.44-81.164-194.56-81.164-96.768 0-177.686 38.312-196.318 89.044h-48.552c-32.034 0-44.522-12.488-44.522-44.522v-400.696zM22.26 114.086h1291.13v-44.522h-1291.13v44.522zM623.304 292.174c-5.856 0-11.688 2.294-16.072 6.856-8.504 8.86-8.214 22.952 0.646 31.476l67.784 65.068c8.838 8.504 22.972 8.236 31.476-0.646 8.504-8.86 8.214-22.952-0.646-31.476l-67.784-65.068c-4.296-4.14-9.862-6.212-15.404-6.212zM734.61 269.914c-5.944 0-11.842 2.336-16.228 7.012-8.414 8.972-7.948 23.062 1.002 31.476l53.514 50.244c8.972 8.392 23.062 7.948 31.476-1.002 8.414-8.972 7.948-23.062-1.002-31.476l-53.514-50.244c-4.318-4.006-9.794-6.010-15.25-6.010zM690.086 91.826h-44.522v22.26c0 59.080 29.962 89.044 89.044 89.044h178.086c14.87 0 49.774 41.404 49.774 64.134h44.522c0-38.956-47.528-108.654-94.298-108.654h-178.086c-34.104 0-44.522-10.418-44.522-44.522v-22.26zM200.348 69.566c-12.31 0-22.26 9.952-22.26 22.26 0 80.096-75.73 155.826-155.826 155.826-12.31 0-22.26 9.952-22.26 22.26s9.952 22.26 22.26 22.26c104.85 0 200.348-95.5 200.348-200.348 0-12.31-9.95-22.26-22.26-22.26zM823.652 425.74c-2.672 0-5.366 0.466-7.948 1.47l-756.87 289.392c-38.89 13.824-58.836 35.862-58.836 65.312v155.826c0 12.31 9.952 22.262 22.26 22.262h1291.13c12.31 0 22.26-9.952 22.26-22.262v-422.956c0-56.586-32.456-89.044-89.044-89.044h-66.782c-12.31 0-22.26 9.952-22.26 22.26 0 26.58-62.152 66.784-155.826 66.784-107.654 0-155.826-33.548-155.826-66.784 0-7.324-3.606-14.18-9.64-18.342-3.784-2.582-8.192-3.918-12.622-3.918zM1198.058 470.262h48.55c32.032 0 44.522 12.488 44.522 44.522v400.696h-1246.608v-133.566c0-8.616 9.994-16.518 29.718-23.552l732.938-280.22c17.184 43.142 74.44 81.164 194.56 81.164 96.768 0 177.686-38.31 196.318-89.044zM22.26 826.434h1291.13v-44.522h-1291.13v44.522zM644.562 494.214c-5.856 0-11.688 2.294-16.072 6.856-8.504 8.86-8.214 22.95 0.646 31.478l67.784 65.090c8.838 8.48 22.972 8.238 31.476-0.646 8.504-8.86 8.214-22.952-0.646-31.476l-67.784-65.092c-4.296-4.142-9.862-6.212-15.404-6.212zM547.528 531.3c-5.944 0-11.842 2.336-16.228 7.012-8.438 8.948-7.97 23.040 0.98 31.456l53.514 50.264c8.994 8.438 23.062 7.97 31.456-0.978 8.438-8.948 7.97-23.040-0.98-31.456l-53.514-50.264c-4.296-4.028-9.774-6.034-15.226-6.034zM373.18 628.714h-44.522c0 38.958 47.526 108.678 94.298 108.678h178.086c34.104 0 44.522 10.418 44.522 44.522v22.26h44.522v-22.26c0-59.080-29.962-89.044-89.044-89.044h-178.086c-14.87 0-49.774-41.428-49.774-64.156zM1313.392 603.826c-104.848 0-200.348 95.5-200.348 200.348 0 12.31 9.952 22.262 22.26 22.262s22.26-9.952 22.26-22.262c0-80.094 75.73-155.826 155.826-155.826 12.31 0 22.26-9.952 22.26-22.262s-9.952-22.26-22.26-22.26z" horiz-adv-x="1336" />
<glyph unicode="&#xe621;" d="M1006.932 738.146c-9.472 0-17.050-7.612-17.050-17.068 0-9.42 7.578-17.068 17.050-17.068 9.422 0 17.084 7.646 17.084 17.068 0 9.438-7.664 17.068-17.084 17.068v0zM1006.95-64c-9.438 0-17.068 7.63-17.068 17.068v699.746c0 9.438 7.63 17.068 17.068 17.068s17.068-7.63 17.068-17.068v-699.746c0-9.438-7.63-17.068-17.068-17.068zM602.804-60.144c-75.316 0-148.568 33.52-193.198 86.972-44.612-53.454-117.864-86.972-193.182-86.972-96.172 0-174.51 52.054-214.942 142.798-3.6 8.090-0.428 17.562 7.288 21.864 7.714 4.268 17.442 1.962 22.408-5.326 19.15-28.178 47.344-44.356 77.346-44.356 0 0 0 0 0.016 0 39.356 0.018 79.192 29.526 79.192 85.948 0 86.972 73.474 133.89 142.594 133.89 30.652 0 58.198-8.926 79.276-25.43 21.078 16.52 48.642 25.43 79.294 25.43 69.12 0 142.576-46.918 142.576-133.89 0-56.424 39.818-85.948 79.14-85.948 30.020 0 58.232 16.162 77.432 44.356 4.966 7.322 14.644 9.626 22.408 5.308 7.714-4.302 10.872-13.774 7.27-21.846-40.414-90.762-118.752-142.798-214.924-142.798zM409.608 72.536c5.77 0 11.144-2.918 14.302-7.764 35.892-55.144 106.122-90.778 178.896-90.778 51.082 0 96.326 17.306 131.552 49.154-7.748-1.604-15.702-2.424-23.756-2.424-54.904 0-113.274 42.086-113.274 120.082 0 64.802-55.86 99.756-108.442 99.756-27.136 0-51.474-9.49-66.75-25.994-3.226-3.5-7.784-5.478-12.526-5.478v0c-4.762 0-9.3 1.98-12.526 5.478-15.274 16.538-39.578 25.994-66.732 25.994-52.582 0-108.46-34.952-108.46-99.756 0-77.98-58.386-120.066-113.326-120.082h-0.034c-8.022 0-15.942 0.818-23.656 2.39 35.226-31.812 80.472-49.12 131.534-49.12 72.808 0 143.004 35.636 178.878 90.778 3.156 4.846 8.534 7.764 14.32 7.764zM699.746 482.142c-131.756 0-238.938 107.18-238.938 238.936 0 131.74 107.18 238.92 238.938 238.92s238.938-107.18 238.938-238.92c0-131.756-107.18-238.936-238.938-238.936zM699.746 925.866c-112.932 0-204.802-91.87-204.802-204.786 0-112.932 91.87-204.802 204.802-204.802s204.802 91.87 204.802 204.802c0 112.916-91.87 204.786-204.802 204.786zM699.746 550.41c-9.438 0-17.068 7.628-17.068 17.068s7.63 17.068 17.068 17.068c75.282 0 136.536 61.252 136.536 136.536 0 9.438 7.63 17.068 17.068 17.068s17.068-7.63 17.068-17.068c0-94.106-76.562-170.67-170.67-170.67z" />
<glyph unicode="&#xe622;" d="M665.61-64h-477.876c-9.438 0-17.068 7.646-17.068 17.068v563.858c-86.614 6.572-170.67 62.722-170.67 152.954 0 114.724 89.942 183.266 176.866 183.266 24.492 0 47.122-5.548 66.116-15.958 16.674 63.626 83.782 122.814 183.692 122.814s167.018-59.188 183.692-122.814c18.996 10.412 41.626 15.958 66.116 15.958 86.922 0 176.866-68.542 176.866-183.266 0-90.232-84.056-146.382-170.67-152.954v-563.858c0-9.422-7.63-17.068-17.068-17.068zM204.802-29.866h443.74v563.208c0 9.42 7.63 17.068 17.068 17.068 75.504 0 153.602 44.68 153.602 119.468 0 102.864-83.474 149.132-142.73 149.132-27.342 0-51.15-8.754-67.072-24.662-4.88-4.88-12.22-6.348-18.602-3.704s-10.53 8.876-10.53 15.77c0 57.448-58.726 119.452-153.604 119.452s-153.604-62.004-153.604-119.452c0-6.894-4.146-13.124-10.53-15.77-6.366-2.662-13.706-1.196-18.604 3.704-15.924 15.906-39.732 24.662-67.072 24.662-59.256 0-142.73-46.27-142.73-149.132 0-74.786 78.098-119.468 153.604-119.468 9.438 0 17.068-7.646 17.068-17.068v-563.208zM665.61 106.67h-477.876c-9.438 0-17.068 7.646-17.068 17.068s7.628 17.068 17.068 17.068h477.876c9.438 0 17.068-7.646 17.068-17.068s-7.63-17.068-17.068-17.068zM324.272 106.67c-9.438 0-17.068 7.646-17.068 17.068v170.67c0 9.422 7.63 17.068 17.068 17.068s17.068-7.646 17.068-17.068v-170.67c0-9.422-7.63-17.068-17.068-17.068zM426.674 106.67c-9.438 0-17.068 7.646-17.068 17.068v204.802c0 9.422 7.63 17.068 17.068 17.068s17.068-7.646 17.068-17.068v-204.802c0-9.422-7.63-17.068-17.068-17.068zM529.076 106.67c-9.438 0-17.068 7.646-17.068 17.068v170.67c0 9.422 7.63 17.068 17.068 17.068s17.068-7.646 17.068-17.068v-170.67c0-9.422-7.63-17.068-17.068-17.068z" horiz-adv-x="854" />
<glyph unicode="&#xe623;" d="M836.268 277.332h-648.534c-121.942 0-187.734 114.312-187.734 221.866 0 9.42 7.628 17.068 17.068 17.068s17.068-7.646 17.068-17.068c0-93.286 52.77-187.734 153.6-187.734h648.534c100.83 0 153.6 94.448 153.6 187.734 0 9.42 7.63 17.066 17.068 17.066s17.066-7.646 17.066-17.066c0-107.554-65.792-221.868-187.732-221.868zM836.268 413.866h-648.534c-9.438 0-17.068 7.646-17.068 17.068s7.628 17.068 17.068 17.068h648.534c9.438 0 17.068-7.646 17.068-17.068s-7.63-17.068-17.068-17.068zM853.332 294.4h-34.134v324.266c0 169.388-137.812 307.2-307.2 307.2s-307.2-137.812-307.2-307.2v-324.266h-34.134v324.266c0 188.212 153.122 341.334 341.334 341.334s341.334-153.122 341.334-341.334v-324.266zM614.4-64h-204.8l34.132 102.4h136.534l34.134-102.4zM456.96-29.866h110.064l-11.366 34.134h-87.33l-11.366-34.134z" />
<glyph unicode="&#xe624;" d="M816.502 566.154l-404.026 0.512c-58.842 13.766-109.43 60.102-135.344 123.924l-1.438 3.564v265.846h669.538l-0.452-266.22c-13.666-62.484-63.154-112.384-126.030-127.114l-2.246-0.512zM419.328 605.538h392.546c45.824 11.598 83.22 49.25 93.972 94.682v220.396h-590.77v-218.664c21.13-49.428 59.766-85.168 104.25-96.414zM827.076-64h-433.23v551.384h433.23v-551.384zM433.23-24.616h354.462v472.616h-354.462v-472.616zM216.616 73.846c-65.162 0-118.154 52.992-118.154 118.154s52.992 118.154 118.154 118.154 118.154-52.992 118.154-118.154-52.992-118.154-118.154-118.154zM216.616 270.77c-43.442 0-78.77-35.328-78.77-78.77s35.328-78.77 78.77-78.77 78.77 35.328 78.77 78.77-35.328 78.77-78.77 78.77zM714.928 107.226c-8.172 0-15.812 5.12-18.61 13.274l-45.116 130.58h-71.226l-45.096-130.58c-3.544-10.278-14.808-15.714-25.028-12.19-10.278 3.544-15.754 14.77-12.19 25.028l49.664 143.852c2.756 7.936 10.22 13.274 18.61 13.274h99.308c8.408 0 15.872-5.336 18.61-13.274l49.664-143.852c3.564-10.278-1.91-21.484-12.19-25.028-2.106-0.73-4.274-1.082-6.4-1.082zM393.846 871.798h39.384v-198.636h-39.384v198.636zM512 871.798h39.384v-198.636h-39.384v198.636zM669.538 871.798h39.384v-198.636h-39.384v198.636zM787.692 871.798h39.384v-198.636h-39.384v198.636zM433.23 585.846h39.384v-118.154h-39.384v118.154zM748.308 585.846h39.384v-118.154h-39.384v118.154zM1083.076 113.23h-196.924v157.538h196.924v-157.538zM925.538 152.616h118.154v78.77h-118.154v-78.77zM1024-24.616h-216.616v39.384h216.616c73.964 0 118.154 69.652 118.154 136.98v79.636c0 67.76-48.364 137.846-129.28 137.846h-205.49v39.384h205.49c105.57 0 168.664-90.112 168.664-177.23v-79.636c0-98.894-69.2-176.364-157.538-176.364zM413.538-24.616h-236.308c-92.752 0-177.23 84.066-177.23 176.364v79.636c0 99.386 69.198 177.23 157.538 177.23h256v-39.384h-256c-73.964 0-118.154-70.086-118.154-137.846v-79.636c0-70.42 66.992-136.98 137.846-136.98h236.308v-39.384z" horiz-adv-x="1182" />
<glyph unicode="&#xe625;" d="M1024-64h-869.274c-65.792 0-103.526 37.326-103.526 102.4v512c0 69.298 57.498 109.696 105.65 102.4h867.15c56.73 0 102.4-56.012 102.4-102.4v-512c0-55.5-46.898-102.4-102.4-102.4zM145.23 602.47c-17.946 0-42.83-18.098-42.83-52.070v-512c0-37.326 14.182-51.2 52.326-51.2h869.274c27.264 0 51.2 23.936 51.2 51.2v512c0 19.278-23.936 51.2-51.2 51.2h-869.274c-1.586 0-3.15 0.154-4.71 0.434-1.562 0.308-3.2 0.434-4.788 0.434zM358.4 192c-70.58 0-128 57.422-128 128s57.42 128 128 128 128-57.422 128-128-57.42-128-128-128zM358.4 396.8c-42.342 0-76.8-34.458-76.8-76.8s34.458-76.8 76.8-76.8 76.8 34.458 76.8 76.8-34.458 76.8-76.8 76.8zM844.8 192c-70.578 0-128 57.422-128 128s57.422 128 128 128 128-57.422 128-128-57.422-128-128-128zM844.8 396.8c-42.342 0-76.8-34.458-76.8-76.8s34.458-76.8 76.8-76.8 76.8 34.458 76.8 76.8-34.458 76.8-76.8 76.8zM844.8 396.8h-486.4c-14.156 0-25.6 11.47-25.6 25.6s11.442 25.6 25.6 25.6h486.4c14.158 0 25.6-11.47 25.6-25.6s-11.442-25.6-25.6-25.6zM742.4 601.6c-14.158 0-25.6 11.468-25.6 25.6v125.364c-5.734 24.78-30.644 50.15-52.992 53.836h-638.208c-14.158 0-25.6 11.468-25.6 25.6s11.442 25.6 25.6 25.6h640c1.050 0 2.126-0.052 3.174-0.206 45.466-5.682 89.778-49.408 98.79-97.484 0.282-1.536 0.434-3.124 0.434-4.71v-128c0-14.13-11.442-25.6-25.6-25.6zM1024 627.2h-51.2v200.346c0 47.846 35.25 81.254 85.71 81.254h119.090v-51.2h-119.090c-15.77 0-34.51-5.222-34.51-30.054v-200.346zM1433.6 806.4h-179.2c-49.33 0-102.4 24.038-102.4 76.8 0 28.698 13.030 76.8 100.174 76.8h181.426c84.634 0 102.4-41.754 102.4-76.8 0-52.762-53.068-76.8-102.4-76.8zM1252.174 908.8c-48.972 0-48.972-16.026-48.972-25.6 0-17.664 29.952-25.6 51.2-25.6h179.2c21.248 0 51.2 7.936 51.2 25.6 0 10.188 0 25.6-51.2 25.6h-181.426zM1475.662 44.646c-7.858 0-15.744 1.536-23.244 4.658l-361.422 150.272 19.662 47.284 361.446-150.272c2.816-1.178 6.068-0.87 8.626 0.818 2.534 1.69 4.070 4.53 4.070 7.602v412.186c0 3.046-1.562 5.914-4.146 7.654-2.482 1.664-5.734 2.022-8.55 0.794l-361.446-150.86-19.712 47.258 361.446 150.886c18.714 7.808 39.91 5.71 56.678-5.452 16.87-11.342 26.932-30.106 26.932-50.278v-412.212c0-20.224-10.060-38.99-26.906-50.226-10.060-6.706-21.71-10.112-33.434-10.112z" horiz-adv-x="1536" />
<glyph unicode="&#xe626;" d="M204.8-64c-47.052 0-85.332 38.28-85.332 85.332s38.282 85.332 85.332 85.332 85.334-38.28 85.334-85.332-38.282-85.332-85.332-85.332zM204.8 72.534c-28.228 0-51.2-22.972-51.2-51.2s22.972-51.2 51.2-51.2 51.2 22.972 51.2 51.2-22.972 51.2-51.2 51.2zM665.6-64c-47.052 0-85.332 38.28-85.332 85.332s38.28 85.332 85.332 85.332 85.332-38.28 85.332-85.332-38.28-85.332-85.332-85.332zM665.6 72.534c-28.228 0-51.2-22.972-51.2-51.2s22.972-51.2 51.2-51.2 51.2 22.972 51.2 51.2-22.972 51.2-51.2 51.2zM682.668 72.534h-477.868c-9.42 0-17.068 7.646-17.068 17.068s7.646 17.068 17.068 17.068h464.436l170.48 703.744c1.842 7.664 8.704 13.056 16.59 13.056h150.63c9.422 0 17.066-7.646 17.066-17.068s-7.646-17.068-17.068-17.068h-137.216l-170.48-703.744c-1.842-7.664-8.704-13.056-16.572-13.056zM699.732 140.8h-553.558c-7.458 0-14.046 4.83-16.282 11.93l-129.11 409.6c-1.638 5.188-0.7 10.836 2.508 15.222 3.226 4.386 8.33 6.98 13.772 6.98h781.364c9.422 0 17.068-7.646 17.068-17.068s-7.646-17.068-17.068-17.068h-758.084l118.356-375.466h541.030c9.422 0 17.068-7.646 17.068-17.068s-7.646-17.068-17.068-17.068zM426.666 618.666c-9.42 0-17.068 7.646-17.068 17.068v307.2c0 9.422 7.646 17.068 17.068 17.068s17.068-7.646 17.068-17.068v-307.2c0-9.42-7.646-17.068-17.068-17.068zM426.666 618.666c-4.932 0-9.608 2.134-12.834 5.82l-119.466 136.534c-6.212 7.1-5.496 17.868 1.604 24.080s17.868 5.478 24.082-1.604l106.616-121.84 106.632 121.856c6.23 7.082 16.98 7.798 24.082 1.604 7.1-6.212 7.818-16.98 1.604-24.082l-119.466-136.534c-3.26-3.702-7.936-5.836-12.85-5.836z" />
<glyph unicode="&#xe627;" d="M204.8-64c-47.052 0-85.332 38.28-85.332 85.332s38.282 85.332 85.332 85.332 85.334-38.28 85.334-85.332-38.282-85.332-85.332-85.332zM204.8 72.534c-28.228 0-51.2-22.972-51.2-51.2s22.972-51.2 51.2-51.2 51.2 22.972 51.2 51.2-22.972 51.2-51.2 51.2zM665.6-64c-47.052 0-85.332 38.28-85.332 85.332s38.28 85.332 85.332 85.332 85.332-38.28 85.332-85.332-38.28-85.332-85.332-85.332zM665.6 72.534c-28.228 0-51.2-22.972-51.2-51.2s22.972-51.2 51.2-51.2 51.2 22.972 51.2 51.2-22.972 51.2-51.2 51.2zM426.666 618.666c-9.42 0-17.068 7.646-17.068 17.068v307.2c0 9.422 7.646 17.068 17.068 17.068s17.068-7.646 17.068-17.068v-307.2c0-9.42-7.646-17.068-17.068-17.068zM546.134 789.332c-4.746 0-9.472 1.98-12.85 5.82l-106.616 121.856-106.632-121.856c-6.194-7.1-16.98-7.818-24.082-1.604s-7.818 16.98-1.604 24.082l119.466 136.534c6.486 7.406 19.2 7.406 25.686 0l119.468-136.534c6.212-7.1 5.496-17.87-1.604-24.082-3.226-2.816-7.236-4.216-11.23-4.216zM682.668 72.534h-477.868c-9.42 0-17.068 7.646-17.068 17.068s7.646 17.068 17.068 17.068h464.436l170.48 703.744c1.842 7.664 8.704 13.056 16.59 13.056h150.63c9.422 0 17.066-7.646 17.066-17.068s-7.646-17.068-17.068-17.068h-137.216l-170.48-703.744c-1.842-7.664-8.704-13.056-16.572-13.056zM699.732 140.8h-553.558c-7.458 0-14.046 4.83-16.282 11.93l-129.11 409.6c-1.638 5.188-0.7 10.836 2.508 15.222 3.226 4.386 8.33 6.98 13.772 6.98h781.346c9.422 0 17.068-7.646 17.068-17.068s-7.646-17.068-17.068-17.068h-758.068l118.356-375.466h541.030c9.422 0 17.068-7.646 17.068-17.068s-7.646-17.068-17.068-17.068z" />
<glyph unicode="&#xe628;" d="M370.76 712.828c-9.762 0-17.654 7.91-17.654 17.654v106.69c0 70.020 53.796 122.826 125.122 122.826 70.728 0 122.050-51.658 122.050-122.826 0-43.36 27.72-71.38 70.62-71.38s70.62 27.718 70.62 70.62c0 46.362 26.642 70.62 52.966 70.62 9.764 0 17.654-7.91 17.654-17.654s-7.892-17.654-17.654-17.654c-8.544 0-17.654-12.376-17.654-35.31 0-62.376-43.572-105.932-105.932-105.932s-105.932 43.874-105.932 106.69c0 51.518-35.682 87.518-86.74 87.518-52.030 0-89.812-36.812-89.812-87.518v-106.69c0-9.746-7.892-17.654-17.654-17.654zM147.438 183.172c-6.622 0-12.942 3.726-15.96 10.1-62.552 131.956-6.108 290.198 125.828 352.768 8.846 4.202 19.35 0.406 23.516-8.386 4.184-8.81 0.424-19.35-8.386-23.518-114.354-54.236-163.276-191.382-109.074-305.752 4.184-8.81 0.424-19.332-8.386-23.518-2.436-1.148-5.014-1.696-7.538-1.696zM370.76-64c-204.43 0-370.76 166.312-370.76 370.76 0 158.456 98.798 297.332 247.172 349.626v74.098c0 9.746 7.892 17.656 17.656 17.656h211.862c9.762 0 17.654-7.91 17.654-17.656v-74.098c148.374-52.296 247.172-191.17 247.172-349.626 0-204.448-166.33-370.76-370.76-370.76zM282.484 712.828v-69.174c0-7.714-4.996-14.53-12.358-16.844-140.448-44.12-234.814-172.738-234.814-320.052 0-184.972 150.474-335.448 335.448-335.448s335.448 150.476 335.448 335.448c0 147.314-94.366 275.932-234.814 320.052-7.362 2.312-12.358 9.128-12.358 16.842v69.174h-176.552z" horiz-adv-x="812" />
<glyph unicode="&#xe629;" d="M426.666-64h-323.534c-56.866 0-103.134 46.268-103.134 103.134v801.4c0 9.42 7.628 17.068 17.068 17.068s17.068-7.646 17.068-17.068v-801.4c0-38.042 30.942-69 69.002-69h323.534c9.438 0 17.068-7.646 17.068-17.068s-7.63-17.068-17.068-17.068zM802.134 823.466h-682.668c-9.438 0-17.068 7.646-17.068 17.068s7.63 17.068 17.068 17.068h682.668c9.438 0 17.068-7.646 17.068-17.068s-7.63-17.068-17.068-17.068zM836.268 584.534c-9.438 0-17.068 7.646-17.068 17.068v119.466h-699.732c-65.86 0-119.466 53.588-119.466 119.466s53.606 119.466 119.466 119.466h716.8c9.438 0 17.068-7.646 17.068-17.068s-7.63-17.068-17.068-17.068h-716.8c-47.052 0-85.332-38.28-85.332-85.332s38.282-85.332 85.332-85.332h716.8c9.438 0 17.068-7.646 17.068-17.068v-136.534c0-9.42-7.63-17.068-17.068-17.068zM733.866 89.6c-9.438 0-17.068 7.646-17.068 17.068v238.932c0 9.422 7.63 17.068 17.068 17.068s17.068-7.646 17.068-17.068v-238.932c0-9.422-7.63-17.068-17.068-17.068zM733.866 89.6c-4.37 0-8.738 1.674-12.066 5l-102.4 102.4c-6.674 6.674-6.674 17.458 0 24.132s17.458 6.674 24.132 0l90.334-90.334 90.334 90.334c6.674 6.674 17.458 6.674 24.132 0s6.674-17.458 0-24.132l-102.4-102.4c-3.328-3.328-7.698-5-12.066-5zM733.866-64c-159.982 0-290.132 130.15-290.132 290.134s130.15 290.134 290.132 290.134 290.134-130.15 290.134-290.134-130.15-290.134-290.134-290.134zM733.866 482.132c-141.158 0-256-114.842-256-256s114.842-256 256-256 256 114.842 256 256-114.842 256-256 256z" />
<glyph unicode="&#xe62a;" d="M476.69-64c-2.702 0-5.42 0.618-7.892 1.854l-459.034 229.518c-5.986 3-9.762 9.11-9.762 15.802v688.552c0 6.020 3.072 11.634 8.138 14.866s11.424 3.672 16.914 1.164l451.638-208.454 451.636 208.456c5.49 2.524 11.864 2.082 16.914-1.166 5.068-3.23 8.14-8.844 8.14-14.866v-688.552c0-6.692-3.778-12.8-9.764-15.802l-459.034-229.518c-2.472-1.236-5.19-1.854-7.892-1.854zM35.31 194.082l441.38-220.69 441.378 220.69v650.046l-433.982-200.298c-4.696-2.154-10.098-2.154-14.796 0l-433.982 200.298v-650.046zM476.69 748.138c-2.702 0-5.42 0.618-7.892 1.854l-353.104 176.552c-8.722 4.36-12.27 14.972-7.91 23.692 4.378 8.722 14.99 12.254 23.694 7.892l345.212-172.596 345.212 172.596c8.704 4.36 19.316 0.83 23.692-7.892 4.36-8.722 0.83-19.332-7.892-23.692l-353.104-176.552c-2.488-1.236-5.208-1.854-7.91-1.854zM476.69-64c-9.762 0-17.656 7.91-17.656 17.654v706.206c0 9.746 7.892 17.654 17.654 17.654s17.654-7.91 17.654-17.654v-706.206c0-9.746-7.892-17.654-17.654-17.654z" horiz-adv-x="954" />
<glyph unicode="&#xe62b;" d="M1202.086-64h-1068.522c-73.662 0-133.564 59.904-133.564 133.566v756.87c0 73.66 59.904 133.564 133.564 133.564h1068.522c73.662 0 133.566-59.904 133.566-133.564v-756.87c0-73.662-59.904-133.566-133.566-133.566zM133.564 915.478c-49.106 0-89.044-39.936-89.044-89.044v-756.87c0-49.106 39.936-89.044 89.044-89.044h1068.522c49.106 0 89.044 39.936 89.044 89.044v756.87c0 49.106-39.936 89.044-89.044 89.044h-1068.522zM1313.392 692.87h-1291.13c-12.31 0-22.26 9.974-22.26 22.26s9.952 22.262 22.26 22.262h1291.13c12.31 0 22.26-9.974 22.26-22.262s-9.952-22.26-22.26-22.26zM222.61 826.434c0-24.588-19.932-44.522-44.522-44.522s-44.522 19.932-44.522 44.522c0 24.59 19.932 44.522 44.522 44.522s44.522-19.932 44.522-44.522zM356.174 826.434c0-24.588-19.932-44.522-44.522-44.522s-44.522 19.932-44.522 44.522c0 24.59 19.932 44.522 44.522 44.522s44.522-19.932 44.522-44.522zM489.738 826.434c0-24.588-19.932-44.522-44.522-44.522s-44.522 19.932-44.522 44.522c0 24.59 19.932 44.522 44.522 44.522s44.522-19.932 44.522-44.522z" horiz-adv-x="1336" />
<glyph unicode="&#xe62c;" d="M256-64c-9.438 0-17.068 7.646-17.068 17.068v170.668c0 9.422 7.628 17.068 17.068 17.068s17.068-7.646 17.068-17.068v-170.668c0-9.422-7.63-17.068-17.068-17.068zM494.932 721.068h-477.868c-9.438 0-17.068 7.646-17.068 17.068s7.628 17.068 17.068 17.068h477.868c9.438 0 17.068-7.646 17.068-17.068s-7.63-17.068-17.068-17.068zM392.534 925.866h-273.068c-9.438 0-17.068 7.646-17.068 17.068s7.63 17.068 17.068 17.068h273.068c9.438 0 17.068-7.646 17.068-17.068s-7.63-17.068-17.068-17.068zM187.734 721.068c-9.438 0-17.068 7.646-17.068 17.068v204.8c0 9.422 7.628 17.068 17.068 17.068s17.068-7.646 17.068-17.068v-204.8c0-9.422-7.628-17.068-17.068-17.068zM324.266 721.068c-9.438 0-17.068 7.646-17.068 17.068v204.8c0 9.422 7.63 17.068 17.068 17.068s17.068-7.646 17.068-17.068v-204.8c0-9.422-7.63-17.068-17.068-17.068zM256 106.668c-84.702 0-153.6 68.914-153.6 153.6v477.866c0 9.422 7.63 17.068 17.068 17.068s17.068-7.646 17.068-17.068v-477.866c0-65.876 53.606-119.466 119.468-119.466s119.466 53.59 119.466 119.466v477.866c0 9.422 7.63 17.068 17.068 17.068s17.068-7.646 17.068-17.068v-477.866c0-84.684-68.898-153.6-153.6-153.6zM221.866 584.534h-102.4c-9.438 0-17.068 7.646-17.068 17.068s7.63 17.068 17.068 17.068h102.4c9.438 0 17.068-7.646 17.068-17.068s-7.628-17.068-17.068-17.068zM221.866 482.132h-102.4c-9.438 0-17.068 7.646-17.068 17.068s7.63 17.068 17.068 17.068h102.4c9.438 0 17.068-7.646 17.068-17.068s-7.628-17.068-17.068-17.068zM221.866 379.732h-102.4c-9.438 0-17.068 7.646-17.068 17.068s7.63 17.068 17.068 17.068h102.4c9.438 0 17.068-7.646 17.068-17.068s-7.628-17.068-17.068-17.068z" horiz-adv-x="512" />
<glyph unicode="&#xe62d;" d="M460.8-64c-9.42 0-17.068 7.63-17.068 17.068v989.866c0 9.438 7.646 17.068 17.068 17.068 87.91 0 153.6-351.404 153.6-665.6 0-9.438-7.646-17.068-17.068-17.068h-119.466v-324.266c0-9.438-7.646-17.068-17.068-17.068zM477.868 311.466h102.348c-2.082 323.89-63.096 545.196-102.348 600.73v-600.73zM153.6-64c-9.42 0-17.068 7.63-17.068 17.068v989.866c0 9.438 7.646 17.068 17.068 17.068s17.068-7.63 17.068-17.068v-989.866c0-9.438-7.646-17.068-17.068-17.068zM153.6 550.4c-84.686 0-153.6 68.898-153.6 153.6v238.932c0 9.438 7.646 17.068 17.068 17.068s17.068-7.63 17.068-17.068v-238.932c0-65.86 53.588-119.466 119.466-119.466s119.466 53.606 119.466 119.466v238.932c0 9.438 7.646 17.068 17.068 17.068s17.068-7.63 17.068-17.068v-238.932c0-84.702-68.916-153.6-153.6-153.6z" horiz-adv-x="614" />
<glyph unicode="&#xe62e;" d="M566.856 374.856c-4.682 0-9.362 1.792-12.928 5.358l-365.714 365.714c-5.23 5.23-6.802 13.094-3.968 19.932 2.834 6.822 9.508 11.282 16.896 11.282h731.428c7.386 0 14.062-4.462 16.896-11.282 2.834-6.838 1.262-14.702-3.968-19.932l-365.714-365.714c-3.566-3.566-8.246-5.358-12.928-5.358zM245.284 740.572l321.572-321.572 321.572 321.572h-643.144zM566.856-64c-10.094 0-18.286 8.192-18.286 18.286v438.856c0 10.094 8.192 18.286 18.286 18.286s18.286-8.192 18.286-18.286v-438.856c0-10.094-8.192-18.286-18.286-18.286zM749.714-64h-365.714c-10.094 0-18.286 8.192-18.286 18.286s8.192 18.286 18.286 18.286h365.714c10.094 0 18.286-8.192 18.286-18.286s-8.192-18.286-18.286-18.286zM334.5 745.928l-177.498 177.5h-157.002v36.572h172.142l188.214-188.216zM932.572 630.856c-33.72 0-66.194 10.222-93.914 29.532l20.918 30.006c21.558-15.030 46.794-22.966 72.996-22.966 70.582 0 128 57.416 128 128s-57.418 128-128 128-128-57.418-128-128c0-10.424 1.426-21.176 4.224-31.982l-35.418-9.178c-3.566 13.788-5.376 27.648-5.376 41.162 0 90.734 73.838 164.57 164.572 164.57s164.572-73.838 164.572-164.57-73.838-164.572-164.572-164.572z" horiz-adv-x="1098" />
<glyph unicode="&#xe62f;" d="M1006.932-64h-989.866c-9.438 0-17.068 7.646-17.068 17.068v136.534c0 9.422 7.628 17.068 17.068 17.068h426.666v375.466h-290.132c-9.438 0-17.068 7.646-17.068 17.068v443.732c0 9.422 7.628 17.068 17.068 17.068h768c60.278 0 102.4-42.102 102.4-102.4v-904.534c0-9.422-7.63-17.068-17.068-17.068zM34.134-29.866h955.732v887.466c0 41.472-26.794 68.266-68.268 68.266h-750.932v-409.6h290.132c9.438 0 17.068-7.646 17.068-17.068v-409.6c0-9.422-7.63-17.068-17.068-17.068h-426.666v-102.4zM819.2-46.932h-34.134v477.866c0 9.422 7.63 17.068 17.068 17.068h204.8v-34.134h-187.732v-460.8zM1006.932 755.2h-238.932c-9.438 0-17.068 7.646-17.068 17.068s7.63 17.068 17.068 17.068h238.932c9.438 0 17.068-7.646 17.068-17.068s-7.63-17.068-17.068-17.068zM1006.932 652.8h-238.932c-9.438 0-17.068 7.646-17.068 17.068s7.63 17.068 17.068 17.068h238.932c9.438 0 17.068-7.646 17.068-17.068s-7.63-17.068-17.068-17.068zM1006.932 550.4h-238.932c-9.438 0-17.068 7.646-17.068 17.068s7.63 17.068 17.068 17.068h238.932c9.438 0 17.068-7.646 17.068-17.068s-7.63-17.068-17.068-17.068zM358.4 243.2h-170.668c-9.438 0-17.068 7.646-17.068 17.068v102.4c0 9.422 7.628 17.068 17.068 17.068h170.668c9.438 0 17.068-7.646 17.068-17.068v-102.4c0-9.422-7.63-17.068-17.068-17.068zM204.8 277.332h136.532v68.266h-136.532v-68.268zM187.734 311.466h-170.668c-9.438 0-17.068 7.646-17.068 17.068s7.628 17.068 17.068 17.068h170.668c9.438 0 17.068-7.646 17.068-17.068s-7.628-17.068-17.068-17.068zM307.2 499.2h34.132v-136.532h-34.132v136.534zM204.8 499.2h34.134v-136.532h-34.134v136.534zM273.068 209.068c-9.438 0-17.068 7.646-17.068 17.068v34.134c0 9.422 7.63 17.068 17.068 17.068s17.068-7.646 17.068-17.068v-34.134c0-9.422-7.63-17.068-17.068-17.068zM290.132 721.068c-47.052 0-85.332 38.28-85.332 85.332s38.282 85.332 85.332 85.332 85.334-38.28 85.334-85.332-38.282-85.332-85.332-85.332zM290.132 857.6c-28.228 0-51.2-22.972-51.2-51.2s22.972-51.2 51.2-51.2 51.2 22.972 51.2 51.2-22.972 51.2-51.2 51.2z" />
<glyph unicode="&#xe630;" d="M529.068 448c-9.422 0-17.068 7.646-17.068 17.068v443.732c0 9.422 7.646 17.068 17.068 17.068 150.732 0 256-98.252 256-238.932s-105.268-238.932-256-238.932zM546.134 891.274v-408.662c123.222 6.758 204.8 87.158 204.8 204.322s-81.578 197.564-204.8 204.338zM273.068 174.932c-158.224 0-273.068 122.010-273.068 290.132 0 9.42 7.646 17.068 17.068 17.068h512c9.422 0 17.068-7.646 17.068-17.068 0-168.124-114.842-290.132-273.068-290.132zM34.576 448c7.406-139.452 105.404-238.932 238.49-238.932s231.082 99.482 238.49 238.932h-476.978zM460.8 550.4h-409.6c-9.42 0-17.068 7.646-17.068 17.068s7.646 17.068 17.068 17.068h409.6c9.42 0 17.068-7.646 17.068-17.068s-7.646-17.068-17.068-17.068zM529.068 891.732c-9.422 0-17.068 7.646-17.068 17.068v34.134c0 9.422 7.646 17.068 17.068 17.068s17.068-7.646 17.068-17.068v-34.134c0-9.42-7.646-17.068-17.068-17.068zM409.6-64c-47.052 0-85.332 38.28-85.332 85.332s38.282 85.332 85.332 85.332 85.332-38.28 85.332-85.332-38.282-85.332-85.332-85.332zM409.6 72.534c-28.228 0-51.2-22.972-51.2-51.2s22.972-51.2 51.2-51.2 51.2 22.972 51.2 51.2-22.972 51.2-51.2 51.2zM119.484-64c-1.108 0-2.236 0.102-3.362 0.342-9.25 1.842-15.24 10.836-13.38 20.086l51.78 258.764c1.842 9.232 10.77 15.24 20.086 13.38 9.25-1.842 15.24-10.836 13.38-20.086l-51.796-258.764c-1.622-8.106-8.738-13.722-16.708-13.722zM409.584 72.534c-7.646 0-14.592 5.172-16.538 12.918l-30.942 123.836c-2.286 9.148 3.276 18.414 12.426 20.702 9.148 2.254 18.416-3.278 20.702-12.424l30.942-123.836c2.286-9.148-3.276-18.414-12.426-20.702-1.4-0.342-2.782-0.496-4.164-0.496zM401.068 106.668h-247.45c-9.42 0-17.068 7.646-17.068 17.068s7.646 17.068 17.068 17.068h247.45c9.42 0 17.068-7.646 17.068-17.068s-7.646-17.068-17.068-17.068z" horiz-adv-x="786" />
<glyph unicode="&#xe631;" d="M1164.108-64h-792.244c-8.294 0-16.050 3.994-20.838 10.752-62.156 87.322-95.026 189.85-95.026 296.448 0 282.318 229.682 512 512 512s512-229.682 512-512c0-106.624-32.87-209.126-95.052-296.448-4.788-6.758-12.57-10.752-20.838-10.752zM385.306-12.8h765.388c51.15 76.212 78.106 164.428 78.106 256 0 254.080-206.72 460.8-460.8 460.8s-460.8-206.72-460.8-460.8c0-91.572 26.956-179.788 78.106-256zM1305.6 89.6c-24.934 0-49.792 4.148-73.856 12.288-13.388 4.558-20.558 19.098-16 32.486 4.53 13.414 19.072 20.608 32.462 16.026 18.74-6.374 38.068-9.6 57.394-9.6 98.816 0 179.2 80.41 179.2 179.2s-80.384 179.2-179.2 179.2c-36.914 0-72.474-11.238-102.836-32.538-11.546-8.142-27.546-5.324-35.662 6.246s-5.326 27.52 6.246 35.662c39.014 27.366 84.762 41.83 132.25 41.83 127.028 0 230.4-103.346 230.4-230.4s-103.374-230.4-230.4-230.4zM768 704c-70.578 0-128 57.422-128 128s57.422 128 128 128 128-57.422 128-128-57.422-128-128-128zM768 908.8c-42.342 0-76.8-34.458-76.8-76.8s34.458-76.8 76.8-76.8 76.8 34.458 76.8 76.8-34.458 76.8-76.8 76.8zM371.43 550.4h793.164v-51.2h-793.164v51.2zM281.6 217.6c-120.576 0-230.4 109.824-230.4 230.4v102.4c0 21.248-7.936 51.2-25.6 51.2-14.132 0-25.6 11.442-25.6 25.6s11.468 25.6 25.6 25.6c52.762 0 76.8-53.068 76.8-102.4v-102.4c0-92.11 87.090-179.2 179.2-179.2 14.13 0 25.6-11.442 25.6-25.6s-11.468-25.6-25.6-25.6z" horiz-adv-x="1536" />
<glyph unicode="&#xe632;" d="M426.666 209.068h-409.6c-9.438 0-17.068 7.63-17.068 17.068v529.068c0 112.93 99.534 204.8 221.866 204.8s221.866-91.87 221.866-204.8v-529.068c0-9.438-7.63-17.068-17.068-17.068zM34.134 243.2h375.466v512c0 92.518-85.964 170.668-187.734 170.668s-187.734-78.148-187.734-170.668v-512zM221.866-64c-9.438 0-17.068 7.63-17.068 17.068v273.068c0 9.438 7.628 17.068 17.068 17.068s17.068-7.63 17.068-17.068v-273.068c0-9.438-7.628-17.068-17.068-17.068zM324.266 379.732c-60.62 0-85.332 24.712-85.332 85.332v170.668c0 7.646-9.42 17.068-17.068 17.068s-17.068-9.422-17.068-17.068c0-26.318-24.884-51.2-51.2-51.2s-51.2 24.884-51.2 51.2v102.4c0 9.438 7.63 17.068 17.066 17.068s17.068-7.63 17.068-17.068v-102.4c0-7.646 9.42-17.068 17.068-17.068s17.068 9.422 17.068 17.068c0 26.318 24.884 51.2 51.2 51.2s51.2-24.884 51.2-51.2v-170.668c0-41.626 9.574-51.2 51.2-51.2 9.438 0 17.068-7.63 17.068-17.068s-7.63-17.068-17.068-17.068z" horiz-adv-x="444" />
<glyph unicode="&#xe633;" d="M175.634 94.162c-4.398 0-8.778 1.678-12.116 5.030-23.462 23.566-23.444 61.78 0.034 85.226 11.38 11.398 26.526 17.678 42.63 17.678 0.016 0 0.034 0 0.050 0 16.104-0.018 31.216-6.316 42.562-17.73 10.114-10.096 26.662-10.096 36.844 0.052 10.080 10.13 10.080 26.714-0.034 36.88-11.346 11.278-17.644 26.406-17.662 42.494-0.016 16.12 6.282 31.3 17.712 42.716 23.444 23.446 61.678 23.446 85.208 0.018 9.926-9.96 26.972-9.908 36.794-0.052 4.964 4.928 7.666 11.466 7.666 18.398s-2.704 13.468-7.616 18.346c-23.498 23.6-23.498 61.832-0.016 85.294 11.33 11.38 26.456 17.66 42.578 17.66 0 0 0.016 0 0.034 0 16.104 0 31.25-6.264 42.646-17.678 10.132-10.148 26.662-10.13 36.81 0.018 4.912 4.928 7.616 11.482 7.616 18.432 0 6.964-2.704 13.486-7.616 18.38-23.444 23.548-23.444 61.762-0.018 85.226 23.496 23.496 61.728 23.496 85.242 0.034 4.946-4.946 11.482-7.666 18.448-7.666 0 0 0 0 0.018 0 6.966 0.016 13.486 2.722 18.38 7.632 10.164 10.148 10.148 26.714 0 36.914-23.412 23.41-23.428 61.608 0.018 85.122 11.346 11.398 26.44 17.678 42.528 17.678 0.018 0 0.034 0 0.052 0 16.086 0 31.232-6.264 42.63-17.662 9.856-9.822 27.004-9.856 36.828 0 4.928 4.928 7.634 11.482 7.616 18.432 0 6.948-2.704 13.484-7.616 18.362-23.48 23.634-23.462 61.866-0.018 85.294 23.514 23.462 61.746 23.428 85.26-0.018 6.692-6.69 6.708-17.506 0.018-24.198-6.692-6.708-17.524-6.69-24.216-0.034-10.164 10.148-26.73 10.2-36.88 0.034-10.13-10.114-10.114-26.68 0.034-36.88 11.362-11.294 17.644-26.44 17.644-42.544 0-16.086-6.246-31.232-17.626-42.63-22.76-22.794-62.448-22.828-85.242-0.016-4.946 4.928-11.482 7.632-18.432 7.632 0 0-0.018 0-0.018 0-6.932 0-13.434-2.704-18.328-7.616-10.13-10.164-10.148-26.664-0.018-36.776 23.462-23.6 23.446-61.832 0-85.26-11.328-11.38-26.456-17.662-42.596-17.678 0 0-0.018 0-0.034 0-16.12 0-31.266 6.28-42.664 17.694-10.148 10.148-26.68 10.096-36.812-0.016-10.114-10.148-10.114-26.68 0.018-36.846 11.346-11.33 17.626-26.474 17.626-42.578 0-16.086-6.264-31.232-17.626-42.612-23.514-23.514-61.746-23.53-85.242-0.018-4.928 4.928-11.466 7.634-18.43 7.634 0 0 0 0-0.016 0-6.948 0-13.468-2.704-18.362-7.616-10.166-10.164-10.148-26.714 0-36.898 11.362-11.328 17.644-26.456 17.644-42.562s-6.282-31.232-17.694-42.612c-22.658-22.726-62.43-22.778-85.208 0.052-10.148 10.096-26.664 10.114-36.81-0.018-4.964-4.946-7.684-11.5-7.666-18.466 0-6.932 2.722-13.434 7.632-18.328 23.428-23.566 23.428-61.762 0.068-85.26-23.532-23.48-61.762-23.496-85.294-0.052-4.93 4.962-11.432 7.684-18.38 7.684 0 0-0.016 0-0.016 0-6.948 0-13.502-2.722-18.432-7.65-10.164-10.148-10.148-26.68 0-36.862 6.674-6.708 6.658-17.524-0.050-24.216-3.336-3.336-7.718-4.996-12.082-4.996zM206.166-4.788c-39.156 0-75.966 15.248-103.656 42.886-57.158 57.176-57.158 150.188-0.016 207.38l610.318 610.3c27.69 27.672 64.518 42.922 103.674 42.922 39.174 0 75.984-15.248 103.656-42.922 57.090-57.176 57.090-150.154 0-207.33l-610.334-610.35c-27.672-27.654-64.484-42.886-103.64-42.886zM816.482 864.472c-30.018 0-58.254-11.688-79.476-32.892l-610.3-610.3c-43.81-43.846-43.81-115.156 0-158.966 21.222-21.186 49.442-32.876 79.474-32.876 30.016 0 58.22 11.688 79.442 32.876l610.334 610.334c43.76 43.828 43.76 115.122 0 158.932-21.222 21.204-49.442 32.892-79.476 32.892zM376.478-64c-0.394 0-0.786 0-1.18 0-53.070 0.36-104.118 24.164-147.656 68.83l24.524 23.89c36.998-37.992 79.662-58.22 123.354-58.51 0.324 0 0.632 0 0.94 0 39.464 0 77.628 16.428 107.54 46.326l462.064 462.062c47.78 47.782 72.030 136.292-16.822 228.482l24.626 23.772c99.292-103.006 79.784-213.062 16.394-276.434l-462.062-462.064c-36.366-36.366-83.12-56.356-131.722-56.356zM81.082 157.928c-4.448 0-8.882 1.728-12.236 5.15-100.49 102.732-78.756 215.304-12.664 281.31l462.062 462.046c76.48 76.634 177.586 70.78 277.392-16.002 7.136-6.194 7.89-17.010 1.694-24.146s-17.010-7.872-24.148-1.694c-85.722 74.528-167.66 80.794-230.724 17.644l-462.062-462.080c-50.21-50.142-76.942-141.288 12.938-233.172 6.606-6.76 6.486-17.592-0.274-24.198-3.354-3.234-7.668-4.86-11.978-4.86z" />
<glyph unicode="&#xe634;" d="M631.466-64h-512c-8.91 0-16.316 6.844-17.016 15.718l-51.2 648.534c-0.376 4.746 1.246 9.438 4.488 12.918s7.766 5.496 12.526 5.496h614.4c4.762 0 9.302-1.998 12.528-5.478s4.864-8.174 4.49-12.918l-51.2-648.534c-0.7-8.892-8.106-15.734-17.014-15.734zM135.236-29.866h480.444l48.504 614.4h-577.452l48.502-614.4zM733.866 584.534h-716.8c-9.42 0-17.068 7.646-17.068 17.068v204.8c0 9.42 7.646 17.068 17.068 17.068h716.8c9.422 0 17.068-7.646 17.068-17.068v-204.8c0-9.42-7.646-17.068-17.068-17.068zM34.134 618.666h682.668v170.668h-682.668v-170.668zM683.008 789.332c-0.12 0-0.222 0-0.342 0h-614.4c-6.212 0-11.912 3.362-14.932 8.788s-2.832 12.066 0.46 17.322l85.332 136.534c3.122 4.984 8.586 8.022 14.474 8.022h443.734c5.888 0 11.35-3.038 14.472-8.022l83.764-134.024c2.798-3.038 4.506-7.1 4.506-11.554 0-9.422-7.646-17.068-17.068-17.068zM99.056 823.466h552.822l-64 102.4h-424.822l-64-102.4zM81.066 482.132h588.8v-34.132h-588.8v34.132zM98.986 209.068h552.754v-34.134h-552.754v34.134zM494.932 311.466h-238.932c-9.42 0-17.068 7.646-17.068 17.068s7.646 17.068 17.068 17.068h238.932c9.42 0 17.068-7.646 17.068-17.068s-7.646-17.068-17.068-17.068z" horiz-adv-x="752" />
<glyph unicode="&#xe635;" d="M1024-64h-1024v1024h1024v-1024zM34.134-29.866h955.732v955.732h-955.732v-955.732zM17.068 209.068h989.866v-34.134h-989.866v34.134zM270.286 584.31c-42.258 0-76.612 35.38-76.612 78.866 0 45.022 36.626 81.63 81.63 81.63 3.55 0 7.1-0.256 10.65-0.734 16.128 51.25 63.35 86.802 118.442 86.802 68.726 0 124.672-55.91 124.672-124.656 0-32.444-12.322-62.958-34.662-85.914-22.528-23.158-52.652-35.908-84.786-35.908-0.016 0-0.016 0-0.016 0-1.998 0-4.028 0.050-6.042 0.154l-128.256-0.018c-0.75-0.118-2.902-0.222-5.018-0.222zM275.302 710.69c-26.18 0-47.498-21.316-47.498-47.498 0-25.924 20.838-46.644 46.080-44.578l130.51 0.050c2.304-0.102 3.772-0.136 5.204-0.136 0 0 0 0 0.016 0 22.852 0 44.272 9.078 60.332 25.582 16.11 16.554 24.986 38.622 24.986 62.122 0 49.92-40.62 90.522-90.538 90.522-44.51 0-81.954-32.052-89.020-76.202l-3.328-20.874-19.694 7.646c-5.7 2.236-11.452 3.362-17.050 3.362zM940.528 184.236l-165.564 323.686c-9.472 18.926-28.348 30.618-49.356 30.618-19.542 0-37.786-10.48-47.6-27.358l-129.758-222.412c-2.952-5.086-8.328-8.26-14.216-8.448-6.076-0.614-11.434 2.698-14.712 7.562-0.802 1.212-82.398 121.532-179.474 121.532-78.746 0-162.064-161.604-187.51-223.862l-31.606 12.902c10.258 25.088 103.406 245.094 219.12 245.094 88.286 0 160.974-76.75 191.914-115.318l116.754 200.158c15.924 27.324 45.466 44.288 77.106 44.288 34.014 0 64.596-18.91 79.822-49.356l165.496-323.55-30.414-15.53z" />
<glyph unicode="&#xe636;" d="M1024-64h-812.138v35.31h776.828v776.828h35.31zM953.38 6.62h-846.672v35.31h811.36v811.36h35.31zM882.76 77.24h-882.76v882.76h882.76v-882.76zM35.31 112.552h812.138v812.138h-812.138v-812.138zM209.354 262.374l-30.314 18.132 135.098 225.668c2.948 4.908 8.086 8.086 13.788 8.528 5.686 0.424 11.264-1.908 14.936-6.286l96.15-115.394 164.988 247.456c3.672 5.526 10.188 8.562 16.702 7.734 6.568-0.76 12.182-5.12 14.514-11.336l134.956-359.248-33.068-12.412-122.808 327.028-159.002-238.468c-3.090-4.644-8.192-7.538-13.736-7.84-5.914-0.23-10.964 2.066-14.512 6.322l-95.356 114.442-122.332-204.322zM262.514 657.548c-46.558 0-84.428 37.888-84.428 84.444s37.888 84.428 84.428 84.428c46.574 0 84.444-37.888 84.444-84.428 0-46.558-37.87-84.444-84.444-84.444zM262.514 791.128c-27.082 0-49.116-22.034-49.116-49.116s22.034-49.134 49.116-49.134 49.134 22.052 49.134 49.134-22.050 49.118-49.134 49.118zM17.656 289.102h845.912v-35.31h-845.912v35.31z" />
<glyph unicode="&#xe637;" d="M769.804 738.486l-214.414 181.438-214.414-181.438-22.406 26.504 225.628 190.914c6.438 5.45 15.966 5.45 22.408 0l225.626-190.914-22.424-26.504zM1041.356-64h-1041.356v833.086h1041.356v-833.086zM34.712-29.288h971.932v763.66h-971.932v-763.66zM937.22 40.136h-833.086v624.814h833.086v-624.814zM138.848 74.846h763.66v555.39h-763.66v-555.39zM576.86 46.28c-6.838 8.052-139.108 165.904-187.392 356.544-47.746-190.602-178.506-348.42-185.258-356.474l-26.606 22.302c1.944 2.326 194.404 234.792 194.404 466.25 0 9.598 7.758 17.356 17.356 17.356s17.356-7.758 17.356-17.356c0-231.408 194.646-463.872 196.608-466.18l-26.468-22.442zM284.74 213.696h210.442v-34.712h-210.442v34.712zM833.086 57.492h-34.712v119.236h-69.424v-119.236h-34.712v136.592c0 9.598 7.758 17.356 17.356 17.356h104.136c9.598 0 17.356-7.758 17.356-17.356v-136.592zM833.086 194.082h-34.712v141.104c0 9.598 7.758 17.356 17.356 17.356h104.136v-34.712h-86.78v-123.748z" horiz-adv-x="1042" />
<glyph unicode="&#xe638;" d="M811.674 106.668v34.134h126.992c26.452 1.11 51.2 25.532 51.2 51.2v142.678l-68.268 90.538v381.184c0 70.35-42.12 119.468-102.4 119.468h-597.332c-64.752 0-119.466-54.716-119.466-119.468v-381.184l-68.266-90.538v-142.678c0-26.318 24.882-51.2 51.2-51.2h123.87v-34.134h-123.87c-45.448 0-85.332 39.868-85.332 85.332v154.112l68.266 90.538v369.75c0 84.686 68.898 153.6 153.6 153.6h597.332c79.12 0 136.534-64.596 136.534-153.6v-369.75l68.268-90.538v-154.112c0-44.338-38.758-83.404-84.616-85.316l-127.71-0.018zM967.986-64h-906.034l29.132 29.134c122.93 122.966 130.73 294.058 130.8 295.782l0.614 16.418h579.054l0.562-16.486c0.068-1.928 8.106-193.382 129.674-294.674l36.198-30.174zM141.842-29.866h736.65c-85.982 94.6-105.182 226.816-109.346 273.068h-514.424c-4.574-44.082-24.832-167.596-112.88-273.068zM512 552.106c-83.746 0-151.894 68.13-151.894 151.894s68.146 151.894 151.894 151.894 151.894-68.13 151.894-151.894-68.148-151.894-151.894-151.894zM512 825.174c-66.816 0-121.174-54.356-121.174-121.174s54.356-121.174 121.174-121.174 121.174 54.356 121.174 121.174-54.356 121.174-121.174 121.174zM273.068 567.466c0-18.85-15.282-34.132-34.134-34.132s-34.134 15.282-34.134 34.132c0 18.85 15.282 34.132 34.134 34.132s34.134-15.282 34.134-34.132zM853.332 721.068h-136.534v136.534h136.534v-136.534zM750.932 755.2h68.268v68.266h-68.268v-68.266zM443.734 942.932h34.132v-112.332h-34.132v112.332zM546.134 942.932h34.134v-112.332h-34.134v112.332zM443.734 577.108h34.132v-146.176h-34.132v146.176zM546.134 577.108h34.134v-146.176h-34.134v146.176zM85.332 448h853.332v-34.134h-853.332v34.134zM17.068 357.462h989.866v-34.134h-989.866v34.134zM68.266 277.332h887.466v-34.134h-887.466v34.134zM158.48 38.4h701.918v-34.134h-701.918v34.134z" />
<glyph unicode="&#xe639;" d="M353.104 253.794h335.448v-35.31h-335.448v35.31zM637.298 41.932h192.494v-35.31h-192.494v35.31zM623.316 748.138h-89.052c-9.764 0-17.654 7.892-17.654 17.654s7.892 17.654 17.654 17.654h89.052c9.764 0 17.654-7.892 17.654-17.654s-7.91-17.654-17.654-17.654zM823.65 642.206h-244.878c-9.764 0-17.654 7.892-17.654 17.654s7.892 17.654 17.654 17.654h244.876c9.764 0 17.654-7.892 17.654-17.654s-7.892-17.654-17.654-17.654zM801.404 571.586h-289.404c-9.762 0-17.654 7.892-17.654 17.654s7.892 17.654 17.654 17.654h289.404c9.764 0 17.654-7.892 17.654-17.654s-7.91-17.654-17.654-17.654zM823.65 500.966h-311.65c-9.762 0-17.654 7.892-17.654 17.654s7.892 17.654 17.654 17.654h311.65c9.764 0 17.654-7.892 17.654-17.654s-7.892-17.654-17.654-17.654zM779.14 430.346h-267.14c-9.762 0-17.654 7.892-17.654 17.654s7.892 17.654 17.654 17.654h267.14c9.764 0 17.654-7.892 17.654-17.654s-7.892-17.654-17.654-17.654zM801.404 359.724h-311.666c-9.762 0-17.656 7.892-17.656 17.654s7.892 17.654 17.654 17.654h311.65c9.764 0 17.654-7.892 17.654-17.654s-7.892-17.654-17.638-17.654zM441.38 960h564.966v-35.31h-564.966v35.31zM547.31-64h-547.31v35.31c18.804 0 32.468 4.696 41.72 14.354 22.722 23.712 20.426 78.178 18.414 126.234-2.136 51.076-4.15 99.328 20.48 125.016 10.752 11.212 25.194 16.878 42.972 16.878h214.968c45.798 242.866 44.51 607.214 44.49 610.94-0.264 4.784-1.96 54.342 22.422 79.96 9.534 10.010 21.944 15.306 35.912 15.306v-35.31c-4.344 0-7.432-1.288-10.328-4.326-10.61-11.106-13.436-39.442-12.728-54.712 0.036-4.59 1.378-386.93-47.916-632.99l-2.842-14.178h-243.978c-10.522 0-15.008-3.424-17.478-6.004-14.23-14.83-12.412-57.678-10.68-99.098 2.188-52.542 4.466-106.69-20.004-142.072h471.886c62.64 0 68.254 53.53 70.072 141.682 1.36 65.996 2.894 140.8 71.168 140.8 68.15 0 69.898-63.47 71.168-109.798 1.748-63.294 6.056-102.066 70.072-102.066 7.804 0 15.254 3.796 22.758 11.582 90.182 93.696 90.624 621.922 83.192 817.54-0.018 31.198 14.742 88.948 70.602 88.948 10.664 0 20.426-4.396 28.212-12.712 30.542-32.592 25.952-128.442 24.718-147.35l-1.076-16.49h-84.974c3.090-196.202-0.282-655.802-95.25-754.424-14.302-14.866-30.508-22.404-48.182-22.404-101.64 0-103.884 82.078-105.366 136.404-1.606 58.456-6.514 75.458-35.876 75.458-30.366 0-34.392-34.022-35.876-106.214-1.518-74.38-3.62-176.27-105.366-176.27zM972.552 818.76h52.206c0.952 39.724-2.984 90.552-15.96 104.394-1.43 1.536-2.082 1.536-2.454 1.536-34.586 0-35.294-50.864-35.31-53.018 0.178-4.274 0.866-23.27 1.518-52.914z" horiz-adv-x="1060" />
<glyph unicode="&#xe63a;" d="M733.866 452.454c-9.422 0-17.068 7.646-17.068 17.068v258.236c-6.246 110.66-96.222 198.11-204.8 198.11s-198.554-87.45-204.818-199.082l0.016-257.262c0-9.42-7.646-17.068-17.068-17.068s-17.068 7.646-17.068 17.068v258.236c7.306 130.644 112.248 232.242 238.932 232.242s231.63-101.598 238.916-231.286l0.018-259.192c0-9.438-7.646-17.068-17.068-17.068zM877.824-64h-731.648c-79.24 0-146.176 70.35-146.176 153.6v272.316c0 114.022 87.228 209.682 202.924 222.514 0.614 0.068 1.246 0.102 1.878 0.102h614.4c0.63 0 1.264-0.034 1.876-0.102 115.696-12.834 202.924-108.492 202.924-222.514v-272.316c0-83.25-66.936-153.6-146.176-153.6zM205.756 550.4c-99.498-11.468-171.622-90.606-171.622-188.484v-272.316c0-63.642 52.36-119.466 112.044-119.466h731.63c59.698 0 112.060 55.826 112.060 119.466v272.316c0 97.878-72.124 177.014-171.622 188.484h-612.49zM232.26-64c-9.42 0-17.068 7.646-17.068 17.068 0 109.244-88.882 198.11-198.128 198.11-9.42 0-17.068 7.646-17.068 17.068s7.646 17.068 17.068 17.068c128.068 0 232.26-104.174 232.26-232.244 0-9.422-7.646-17.068-17.068-17.068zM791.74-64c-9.422 0-17.068 7.646-17.068 17.068 0 128.068 104.192 232.242 232.26 232.242 9.422 0 17.068-7.646 17.068-17.068s-7.646-17.068-17.068-17.068c-109.244 0-198.126-88.884-198.126-198.11 0-9.422-7.646-17.066-17.068-17.066zM920.85 311.466h-817.716c-9.42 0-17.068 7.646-17.068 17.068s7.646 17.068 17.068 17.068h817.716c9.422 0 17.068-7.646 17.068-17.068s-7.646-17.068-17.068-17.068zM189.218 215.756c-9.42 0-17.068 7.646-17.068 17.068v43.024c0 9.422 7.646 17.068 17.068 17.068s17.068-7.646 17.068-17.068v-43.024c0-9.438-7.646-17.068-17.068-17.068z" />
</font>
</defs>
</svg>
